Торрент файл
скачать торрент магнет ссылка Добавлен: 12 янв 2013, 23:48
Размер: 2.35 ГБ
Сидеров: 2
Личеров: 4
Автор

СообщениеДобавлено: 12 янв 2013, 23:48 

Не в сети
Супермодератор
Аватара пользователя
Дата регистрации:
11 апр 2010, 18:10
Спасибо: 5996 / 7
Сообщения: 56684
id="p-25224744-1">Агент Джонни Инглиш / Johnny English



Год выпуска: 2003
Страна: Франция, Великобритания
Жанр: боевик, комедия, приключения
Продолжительность: 01:27:25
Перевод: Профессиональный (полное дублирование)
Режиссер: Питер Хауит / Peter Howitt
В ролях: Роуэн Эткинсон (Johnny English), Натали Имбрулья (Lorna Campbell), Бен Миллер (Bough, English's Sidekick), Джон Малкович (Pascal Sauvage, the Greedy Frenchman), Тим Пиготт-Смит (Pegasus, Head of MI7), Кевин МакНэлли (Prime Minister), Оливер Форд Дэвис (Archbishop of Canterbury), Дуглас МакФерран (Carlos Vendetta), Таша ди Вашконселуш (Countess Alexandra - Exotic Woman), Грег Уайз (Agent One), Стив Николсон (Dieter Klein), Теренс Харви (Official at Funeral)
Описание: История самого некомпетентного и недалекого Британского дипломата, которого только можно представить, которого ошибочно принимают за самого знаменитого и опасного шпиона Великобритании, Джонни Инглиша. Из-за этой путаницы герой оказывается вовлеченным в смертельную схватку с авторами очередного дьявольского плана.

Качество: BDRip
Исходник: http://rutracker.org/forum/viewtopic.php?t=3764545
Формат: m4v
Видео кодек: H.264
Аудио кодек: AAC
Видео: 1024x556, 3500 Kbps, 23,976 fps
Аудио Rus: 48 kHz, AAC, 2ch, 169 kbps
Аудио Eng: 48 kHz, AAC, 2ch, 165 kbps
MediaInfo
Код:
Код:
Полное имя : F:\iPad\Johnny English.m4v
Формат : MPEG-4
Идентификатор кодека : M4V
Размер файла : 2,35 Гбайт
Продолжительность : 1 ч. 27 м.
Общий поток : 3844 Кбит/сек
Название фильма : Агент Джонни Инглиш
Исполнитель : Питер Хауит
Жанр : Comedy
Дата записи : UTC 2003-08-11 07:00:00
Дата кодирования : UTC 2012-02-09 13:20:06
Дата пометки : UTC 2012-02-15 08:23:01
Обложка : Yes
desc : История самого некомпетентного и недалекого Британского дипломата, которого только можно представить, которого ошибочно принимают за самого знаменитого и опасного шпиона Великобритании, Джонни Инглиша.
ldes : История самого некомпетентного и недалекого Британского дипломата, которого только можно представить, которого ошибочно принимают за самого знаменитого и опасного шпиона Великобритании, Джонни Инглиша. Из-за этой путаницы герой оказывается вовлеченным в смертельную схватку с авторами очередного дьявольского плана.
hdvd : 1
stik : 9
cnID : 325484174
xid : iPad:vendor_id:2003-7983
iTunEXTC : mpaa|PG|200|
iTunMOVI : / / / / cast / / / name / Роуэн Эткинсон / / / name / Натали Имбрулья / / / name / Бен Миллер / / / name / Джон Малкович / / / name / Тим Пиготт-Смит / / / name / Кевин МакНэлли / / / name / Оливер Форд Дэвис / / / name / Дуглас МакФерран / / / name / Таша ди Вашконселуш / / / name / Грег Уайз / / / directors / / / name / Питер Хауит / / / producers / / / name / Тим Беван / / / name / Эрик Феллнер / / / name / Марк Хаффам / / / screenwriters / / / name / Нил Пёрвис / / / name / Роберт Уэйд / / / name / Уильям Дэвис / / / /
Видео
Идентификатор : 1
Формат : AVC
Формат/Информация : Advanced Video Codec
Профиль формата : [email protected]
Параметр CABAC формата : Да
Параметр ReFrames формата : 8 кадры
Параметры GOP формата : M=1, N=49
Идентификатор кодека : avc1
Идентификатор кодека/Информация : Advanced Video Coding
Продолжительность : 1 ч. 27 м.
Вид битрейта : Переменный
Битрейт : 3500 Кбит/сек
Максимальный битрейт : 9162 Кбит/сек
Ширина : 1024 пикс.
Высота : 556 пикс.
Соотношение сторон : 16:9
Режим частоты кадров : Постоянный
Частота кадров : 23,976 кадр/сек
Цветовое пространство : YUV
Подвыборка цветности : 4:2:0
Битовая глубина : 8 бит
Тип развёртки : Прогрессивная
Бит/(Пиксели*Кадры) : 0.256
Размер потока : 2,14 Гбайт (91%)
Заголовок : Agent.Dzhonni.Inglish.2003.x264.BDRip.(AVC)-VenomPain.mkv
Библиотека кодирования : x264 core 119 r2106 07efeb4
Настройки программы : cabac=1 / ref=8 / deblock=1:-2:-2 / analyse=0x3:0x133 / me=umh / subme=11 / psy=1 / psy_rd=1.00:0.00 / mixed_ref=1 / me_range=48 / chroma_me=1 / trellis=2 / 8x8dct=1 / cqm=0 / deadzone=21,11 / fast_pskip=0 / chroma_qp_offset=-2 / threads=3 / sliced_threads=0 / nr=0 / decimate=1 / interlaced=0 / bluray_compat=0 / constrained_intra=0 / bframes=8 / b_pyramid=2 / b_adapt=2 / b_bias=0 / direct=3 / weightb=1 / open_gop=0 / weightp=2 / keyint=250 / keyint_min=23 / scenecut=40 / intra_refresh=0 / rc=2pass / mbtree=0 / bitrate=3500 / ratetol=1.0 / qcomp=0.60 / qpmin=10 / qpmax=51 / qpstep=4 / cplxblur=20.0 / qblur=0.5 / ip_ratio=1.40 / pb_ratio=1.30 / aq=2:1.00
Язык : English
Дата кодирования : UTC 2012-02-09 13:20:06
Дата пометки : UTC 2012-02-09 13:22:40
Аудио #1
Идентификатор : 2
Формат : AAC
Формат/Информация : Advanced Audio Codec
Профиль формата : LC
Идентификатор кодека : 40
Продолжительность : 1 ч. 27 м.
Вид битрейта : Переменный
Битрейт : 169 Кбит/сек
Максимальный битрейт : 218 Кбит/сек
Канал(ы) : 2 канала(ов)
Расположение каналов : Front: L R
Частота : 48,0 КГц
Метод сжатия : С потерями
Размер потока : 106 Мбайт (4%)
Заголовок : Russian
Язык : Russian
Дата кодирования : UTC 2012-02-09 13:22:20
Дата пометки : UTC 2012-02-09 13:22:40
Аудио #2
Идентификатор : 3
Формат : AAC
Формат/Информация : Advanced Audio Codec
Профиль формата : LC
Идентификатор кодека : 40
Продолжительность : 1 ч. 27 м.
Вид битрейта : Переменный
Битрейт : 165 Кбит/сек
Максимальный битрейт : 217 Кбит/сек
Канал(ы) : 2 канала(ов)
Расположение каналов : Front: L R
Частота : 48,0 КГц
Метод сжатия : С потерями
Размер потока : 103 Мбайт (4%)
Заголовок : English
Язык : English
Дата кодирования : UTC 2012-02-09 13:22:30
Дата пометки : UTC 2012-02-09 13:22:40
Текст #1
Идентификатор : 4
Формат : Timed text
Режим смешивания : sbtl
Идентификатор кодека : tx3g
Продолжительность : 1 ч. 23 м.
Вид битрейта : Переменный
Битрейт : 93 бит/сек
Размер потока : 57,0 Кбайт (0%)
Заголовок : Русские
Язык : Russian
Дата кодирования : UTC 2012-02-09 13:22:39
Дата пометки : UTC 2012-02-09 13:22:40
Текст #2
Идентификатор : 5
Формат : Timed text
Режим смешивания : sbtl
Идентификатор кодека : tx3g
Продолжительность : 1 ч. 25 м.
Вид битрейта : Переменный
Битрейт : 71 бит/сек
Размер потока : 44,4 Кбайт (0%)
Заголовок : Английские
Язык : English
Дата кодирования : UTC 2012-02-09 13:22:39
Дата пометки : UTC 2012-02-09 13:22:40
Текст #3
Идентификатор : 7
Формат : Apple text
Идентификатор кодека : text
Продолжительность : 1 ч. 27 м.
Вид битрейта : Постоянный
Битрейт : 1 бит/сек
Размер потока : 540 байт (0%)
Дата кодирования : UTC 2012-02-15 08:23:01
Дата пометки : UTC 2012-02-15 08:23:01

Скриншоты



Вернуться к началу
 Профиль Отправить личное сообщение  
 
   Похожие торренты   Автор   Торрент   Размер 
В этой теме нет новых непрочитанных сообщений. Агент Джонни Инглиш: Перезагрузка / Johnny English Reborn [Комедия, боевик, приключения, 2011] HDRip-AVC, Dub

salma3

93 | 4

745.91 МБ

В этой теме нет новых непрочитанных сообщений. Легенда о Джонни Линго / The Legend of Johnny Lingo [боевик, приключения, семейный, 2003] WEBRip, Mvo

salma3

0 | 5

1.45 ГБ

В этой теме нет новых непрочитанных сообщений. Агент Картер / Agent Carter (Сезон 1-2, Серия 1-18 из 18) (Луис Д'Эспозито, Питер Лето) [2015-2016 , Фантастика, боевик, приключения, криминал, драма , WEB-DLRip-AVC 1080p] [MVO] [LostFilm , Nevafilm , English] + [Subs Rus,ENG]

Враг Нароода

0 | 0

32.66 ГБ

В этой теме нет новых непрочитанных сообщений. Агент Коди Бэнкс / Agent Cody Banks [Комедия, боевик, приключения, 2003] BDRip 720p, Dub

salma3

37 | 30

4.84 ГБ

В этой теме нет новых непрочитанных сообщений. Фрэнки и Джонни / Frankie and Johnny [мюзикл, мелодрама, комедия, 1966] BDRip, Mvo

salma3

0 | 0

1.45 ГБ

В этой теме нет новых непрочитанных сообщений. Агент Коди Бэнкс / Agent Cody Banks [Комедия, боевик, приключения, 2003] BDRemux 1080p, Dub

salma3

27 | 26

18.49 ГБ

В этой теме нет новых непрочитанных сообщений. Беги, Джонни / Bhaag Johnny [Боевик, триллер, 2015] DVDRip, Mvo [SDI Media]

salma3

39 | 8

1.37 ГБ


Начать новую тему Ответить на тему  [ 1 сообщение ] 




Для Мосгорсуда, Роскомнадзора и рекламодателей:: mosgorsud-torrent[собачка]yandex.ru
cron