Торрент файл
скачать торрент магнет ссылка Добавлен: 12 янв 2013, 23:47
Размер: 3.79 ГБ
Сидеров: 6
Личеров: 2
Автор

СообщениеДобавлено: 12 янв 2013, 23:47 

Не в сети
Супермодератор
Аватара пользователя
Дата регистрации:
11 апр 2010, 18:10
Спасибо: 5995 / 7
Сообщения: 56685
id="p-25224744-1">Гарри Поттер и Кубок Огня / Harry Potter and the Goblet of Fire«Впереди темные и страшные времена»

Страна: США, Великобритания
Жанр: фэнтези, детектив, приключения, семейный
Год выпуска: 2005
Продолжительность: 02:37:06
Перевод: Профессиональный (полное дублирование)
Cубтитры: есть
Оригинальная аудиодорожка: английский
Режиссер: Майк Ньюэлл
Сценарий: Стивен Кловз, Дж.К. Роулинг
Продюсер: Дэвид Хейман, Лорни Орлинз, Дэвид Баррон
В ролях: Дэниэл Рэдклифф, Эмма Уотсон, Руперт Гринт, Алан Рикман, Эрик Сайкес, Тимоти Сполл, Дэвид Теннант, Марк Уильямс, Джеймс Фелпс, Оливер Фелпс
Описание: Гарри Поттер, Рон и Гермиона возвращаются на четвертый курс школы чародейства и волшебства «Хогвартс». При таинственных обстоятельствах Гарри отобран в число участников опасного соревнования — Турнира Трех Волшебников, однако проблема в том, что все его соперники — намного старше и сильнее.
Качество: BDRip
Исходник: BDRip 720p
Формат: m4v
Видео кодек: H.264
Аудио кодек: AAC
Видео: 1280x534, 3086 Kbps, 23,976 fps
Аудио RUS: 48 kHz, AAC, 2ch, 180 kbps - Профессиональный (полное дублирование)
Аудио ENG: 48 kHz, AAC, 2ch, 183 kbps - Оригинал
MediaInfo
Код:
Код:
Полное имя : D:\Harry Potter and the Goblet of Fire.m4v
Формат : MPEG-4
Идентификатор кодека : M4V
Размер файла : 3,79 Гбайт
Продолжительность : 2 ч. 37 м.
Общий поток : 3455 Кбит/сек
Название фильма : Гарри Поттер и кубок огня
Исполнитель : Mike Newell
Жанр : Kids & Family
Дата записи : UTC 2005-11-06 08:00:00
Дата кодирования : UTC 2011-12-10 05:10:42
Дата пометки : UTC 2011-12-11 05:17:09
Обложка : Yes
desc : Гарри Поттер, Рон и Гермиона возвращаются на четвертый курс школы чародейства и волшебства «Хогвартс». При таинственных обстоятельствах Гарри отобран в число участников опасного соревнования — Турнира Трех Волшебников.
ldes : Гарри Поттер, Рон и Гермиона возвращаются на четвертый курс школы чародейства и волшебства «Хогвартс». При таинственных обстоятельствах Гарри отобран в число участников опасного соревнования — Турнира Трех Волшебников, однако проблема в том, что все его соперники — намного старше и сильнее.
hdvd : 1
stik : 0
cnID : 288834347
xid : iPad:vendor_id:2005-8408
iTunEXTC : mpaa|PG-13|300|
iTunMOVI : / / / / cast / / / name / Дэниэл Рэдклифф / / / name / Руперт Гринт / / / name / Эмма Уотсон / / / name / Роберт Паттинсон / / / name / Рэйф Файнс / / / name / Брендан Глисон / / / name / Алан Рикман / / / name / Майкл Гэмбон / / / name / Робби Колтрейн / / / name / Мэгги Смит / / / directors / / / name / Майк Ньюэлл / / / producers / / / name / Дэвид Хейман / / / name / Лорни Орлинз / / / name / Дэвид Баррон / / / screenwriters / / / name / Стивен Кловз / / / name / Дж.К. Роулинг / / / /
Видео
Идентификатор : 1
Формат : AVC
Формат/Информация : Advanced Video Codec
Профиль формата : [email protected]
Параметр CABAC формата : Да
Параметр ReFrames формата : 11 кадры
Идентификатор кодека : avc1
Идентификатор кодека/Информация : Advanced Video Coding
Продолжительность : 2 ч. 37 м.
Вид битрейта : Переменный
Битрейт : 3086 Кбит/сек
Максимальный битрейт : 11,6 Мбит/сек
Ширина : 1280 пикс.
Высота : 534 пикс.
Соотношение сторон : 2,35:1
Режим частоты кадров : Постоянный
Частота кадров : 23,976 кадр/сек
Цветовое пространство : YUV
Подвыборка цветности : 4:2:0
Битовая глубина : 8 бит
Тип развёртки : Прогрессивная
Бит/(Пиксели*Кадры) : 0.188
Размер потока : 3,39 Гбайт (89%)
Заголовок : Harry Potter and the Goblet of Fire
Библиотека кодирования : x264 core 94 r1570 d9db8b3
Настройки программы : cabac=1 / ref=11 / deblock=1:-2:-2 / analyse=0x3:0x133 / me=umh / subme=9 / psy=1 / psy_rd=1.20:0.00 / mixed_ref=1 / me_range=64 / chroma_me=1 / trellis=2 / 8x8dct=1 / cqm=0 / deadzone=21,11 / fast_pskip=0 / chroma_qp_offset=-2 / threads=9 / sliced_threads=0 / nr=0 / decimate=1 / interlaced=0 / constrained_intra=0 / bframes=16 / b_pyramid=2 / b_adapt=2 / b_bias=0 / direct=3 / wpredb=1 / wpredp=2 / keyint=250 / keyint_min=25 / scenecut=40 / intra_refresh=0 / rc_lookahead=60 / rc=crf / mbtree=0 / crf=18.6 / qcomp=0.60 / qpmin=10 / qpmax=51 / qpstep=4 / vbv_maxrate=50000 / vbv_bufsize=50000 / crf-max=0.0 / ip_ratio=1.40 / pb_ratio=1.30 / aq=1:1.10 / nal_hrd=none
Язык : English
Дата кодирования : UTC 2011-12-10 05:10:42
Дата пометки : UTC 2011-12-10 05:13:23
Аудио #1
Идентификатор : 2
Формат : AAC
Формат/Информация : Advanced Audio Codec
Профиль формата : LC
Идентификатор кодека : 40
Продолжительность : 2 ч. 37 м.
Вид битрейта : Переменный
Битрейт : 183 Кбит/сек
Максимальный битрейт : 240 Кбит/сек
Канал(ы) : 2 канала(ов)
Расположение каналов : Front: L R
Частота : 48,0 КГц
Метод сжатия : С потерями
Размер потока : 206 Мбайт (5%)
Заголовок : Russian stereo
Язык : Russian
Дата кодирования : UTC 2011-12-10 05:13:03
Дата пометки : UTC 2011-12-10 05:13:23
Аудио #2
Идентификатор : 3
Формат : AAC
Формат/Информация : Advanced Audio Codec
Профиль формата : LC
Идентификатор кодека : 40
Продолжительность : 2 ч. 37 м.
Вид битрейта : Переменный
Битрейт : 180 Кбит/сек
Максимальный битрейт : 236 Кбит/сек
Канал(ы) : 2 канала(ов)
Расположение каналов : Front: L R
Частота : 48,0 КГц
Метод сжатия : С потерями
Размер потока : 202 Мбайт (5%)
Заголовок : English stereo
Язык : English
Дата кодирования : UTC 2011-12-10 05:13:14
Дата пометки : UTC 2011-12-10 05:13:23
Текст #1
Идентификатор : 4
Формат : Timed text
Режим смешивания : sbtl
Идентификатор кодека : tx3g
Продолжительность : 2 ч. 36 м.
Вид битрейта : Переменный
Битрейт : 0
Размер потока : 530 байт (0%)
Заголовок : Forced
Язык : Russian
Дата кодирования : UTC 2011-12-10 05:13:22
Дата пометки : UTC 2011-12-10 05:13:23
Текст #2
Идентификатор : 5
Формат : Timed text
Режим смешивания : sbtl
Идентификатор кодека : tx3g
Продолжительность : 2 ч. 23 м.
Вид битрейта : Переменный
Битрейт : 85 бит/сек
Размер потока : 89,4 Кбайт (0%)
Заголовок : Full
Язык : Russian
Дата кодирования : UTC 2011-12-10 05:13:22
Дата пометки : UTC 2011-12-10 05:13:23
Текст #3
Идентификатор : 6
Формат : Timed text
Режим смешивания : sbtl
Идентификатор кодека : tx3g
Продолжительность : 2 ч. 23 м.
Вид битрейта : Переменный
Битрейт : 56 бит/сек
Размер потока : 58,5 Кбайт (0%)
Заголовок : Original
Язык : English
Дата кодирования : UTC 2011-12-10 05:13:22
Дата пометки : UTC 2011-12-10 05:13:23
Текст #4
Идентификатор : 7
Формат : Apple text
Идентификатор кодека : text
Продолжительность : 2 ч. 37 м.
Вид битрейта : Переменный
Битрейт : 1 бит/сек
Размер потока : 976 байт (0%)
Дата кодирования : UTC 2011-12-11 05:16:57
Дата пометки : UTC 2011-12-11 05:16:57

Log
Код:
Код:
---[NoImage] x264 [info]: frame I:1516 Avg QP:15.18 size: 69675 PSNR Mean Y:48.23 U:51.70 V:52.35 Avg:49.09 Global:48.40
---[NoImage] x264 [info]: frame P:49768 Avg QP:16.44 size: 30468 PSNR Mean Y:46.98 U:51.27 V:51.57 Avg:47.87 Global:46.73
---[NoImage] x264 [info]: frame B:174700 Avg QP:18.20 size: 11529 PSNR Mean Y:45.74 U:50.27 V:50.81 Avg:46.72 Global:45.82
---[NoImage] x264 [info]: consecutive B-frames: 1.2% 2.7% 8.5% 20.9% 23.8% 33.8% 4.3% 2.3% 0.7% 0.8% 0.4% 0.3% 0.1% 0.3% 0.0% 0.0% 0.0%
---[NoImage] x264 [info]: mb I I16..4: 8.0% 79.5% 12.6%
---[NoImage] x264 [info]: mb P I16..4: 2.7% 15.9% 1.7% P16..4: 42.0% 25.0% 4.5% 0.2% 0.2% skip: 7.8%
---[NoImage] x264 [info]: mb B I16..4: 0.3% 1.2% 0.1% B16..8: 38.9% 12.7% 2.7% direct: 9.2% skip:34.7% L0:43.2% L1:46.3% BI:10.5%
---[NoImage] x264 [info]: 8x8 transform intra:77.7% inter:59.0%
---[NoImage] x264 [info]: direct mvs spatial:100.0% temporal:0.0%
---[NoImage] x264 [info]: coded y,uvDC,uvAC intra: 77.8% 77.0% 58.3% inter: 28.0% 24.6% 3.6%
---[NoImage] x264 [info]: i16 v,h,dc,p: 58% 15% 8% 20%
---[NoImage] x264 [info]: i8 v,h,dc,ddl,ddr,vr,hd,vl,hu: 13% 8% 10% 9% 13% 12% 12% 11% 12%
---[NoImage] x264 [info]: i4 v,h,dc,ddl,ddr,vr,hd,vl,hu: 14% 7% 8% 9% 14% 13% 12% 10% 12%
---[NoImage] x264 [info]: i8c dc,h,v,p: 50% 21% 17% 11%
---[NoImage] x264 [info]: Weighted P-Frames: Y:4.9%
---[NoImage] x264 [info]: ref P L0: 43.8% 9.5% 17.1% 6.8% 5.6% 4.4% 3.8% 2.5% 2.3% 2.0% 1.8% 0.3% 0.0%
---[NoImage] x264 [info]: ref B L0: 74.0% 10.7% 5.1% 2.6% 2.1% 1.9% 1.6% 1.1% 0.7% 0.3%
---[NoImage] x264 [info]: ref B L1: 92.9% 7.1%
---[NoImage] x264 [info]: SSIM Mean Y:0.9843407
---[NoImage] x264 [info]: PSNR Mean Y:46.033 U:50.497 V:50.989 Avg:46.993 Global:46.022 kb/s:3086.17

Скриншоты
Для просмотра данного релиза на компьютере с ОС Windows рекомендуется использовать VLC media player



Вернуться к началу
 Профиль Отправить личное сообщение  
 
   Похожие торренты   Автор   Торрент   Размер 
В этой теме нет новых непрочитанных сообщений. Гарри Поттер и философский камень / Harry Potter and the Sorcerer's Stone [Фэнтези, Приключения, Семейный, 2001] BDRip-HEVC 2160p, Dub

salma3

17 | 1

7.3 ГБ

В этой теме нет новых непрочитанных сообщений. Гарри Поттер и философский камень / Harry Potter and the Sorcerer's Stone [фэнтези, приключения, семейный, 2001] WEB-DL 1080p, Dub [Open Matte]

salma3

23 | 7

22.78 ГБ

В этой теме нет новых непрочитанных сообщений. Гарри Поттер и Принц-полукровка / Harry Potter and the Half-Blood Prince [Фэнтези, мелодрама, приключения, 2009] BDRemux 2160p, Dub [4K]

salma3

6 | 20

63.93 ГБ

В этой теме нет новых непрочитанных сообщений. Гарри Поттер и Дары смерти: Часть II / Harry Potter and the Deathly Hallows: Part 2 [Фэнтези, приключения, экранизация, 2011] BDRemux 2160p, Dub [4K]

salma3

5 | 18

50.08 ГБ

В этой теме нет новых непрочитанных сообщений. Власть огня / Reign of fire [боевик, фэнтези, приключения, 2002] BDRip 1080p, Dub

salma3

0 | 0

10.03 ГБ

В этой теме нет новых непрочитанных сообщений. Большой и добрый великан / The BFG [фэнтези, приключения, семейный, 2016] BDRip 720p, Dub [iPad] [Лицензия]

salma3

0 | 0

2.26 ГБ

В этой теме нет новых непрочитанных сообщений. На линии огня / In the Line of Fire [боевик, триллер, драма, криминал, детектив, 1993] BDRip 720p, Dub

salma3

47 | 10

7.75 ГБ


Начать новую тему Ответить на тему  [ 1 сообщение ] 




Для Мосгорсуда, Роскомнадзора и рекламодателей:: mosgorsud-torrent[собачка]yandex.ru
cron