Торрент файл
скачать торрент магнет ссылка Добавлен: 12 янв 2013, 23:47
Размер: 925.98 МБ
Сидеров: 0
Личеров: 2
Автор

СообщениеДобавлено: 12 янв 2013, 23:47 

Не в сети
Супермодератор
Аватара пользователя
Дата регистрации:
11 апр 2010, 18:10
Спасибо: 5996 / 7
Сообщения: 56684
id="p-25224744-1">Адреналин 2: Высокое напряжение / Crank 2: Hight Voltage
«Он заряжен, чтобы вернуть свое сердце...»
Год выпуска: 2009
Страна: США
Жанр: Action & Adventure
Продолжительность: 1:35:50
Перевод #1 : Профессиональный (многоголосый, полное дублирование)
Перевод #2 : Любительский одноголосый (Гоблин)
Русские субтитры: нет
Режиссёр: Марк Невелдайн / Mark Neveldine, Брайан Тейлор / Brian Taylor
В ролях: Джейсон Стэйтем / Jason Statham, Эми Смарт / Amy Smart, Дуайт Йоакам / Dwight Yoakam, Эфрен Рамирез / Efren Ramirez, Арт Хсю / Art Hsu и другие.
Описание: Он умер, но обещал вернуться! Не чудом, а благодаря современным медицинским технологиям Чев Челиос получает новое сердце и новый шанс отомстить своим врагам. Теперь для постоянной подзарядки ему требуется электрический разряд мощностью не меньше, чем у автомобильного аккумулятора.


Качество: HDRip
Ссылка на исходник: http://rutracker.org/forum/viewtopic.php?t=2150024
Формат: *.m4v
Видео кодек: H.264
аудио кодек: ААС
Разрешение: 608x320
Другие параметры видео: 23,976 кадра/сек., 960 Кбит/сек., 0.206 бит/(пиксели,кадры)
Аудио #1: 48,0 КГц., 2 канала, 128 Кбит/сек. (RUS. Дубляж)
Аудио #2: 48,0 КГц., 2 канала, 128 Кбит/сек. (RUS. Гоблин)
Аудио #3: 48,0 КГц., 2 канала, 128 Кбит/сек. (ENG)
Вшитая обложка: есть
Доп. теги (режиссёр, актёры и т.д.): прописаны
MediaInfo
Общее
Полное имя : C:\Documents and Settings\Chelios\Мои документы\Загрузка\Crank_2.m4v
Формат : MPEG-4
Профиль формата : Base Media / Version 2
Идентификатор кодека : mp42
Размер файла : 926 Мбайт
Продолжительность : 1 ч. 35 м.
Режим общего битрейта : Переменный
Общий поток : 1351 Кбит/сек
Название фильма : Адреналин: Высокое напряжение / Crank 2: Hight Voltage
Исполнитель : Джейсон Стэйтем, Эми Смарт, Дуайт Йоакам и др.
Жанр : Action & Adventure
Дата записи : 2009-04-17
Дата кодирования : UTC 2012-04-23 09:57:55
Дата пометки : UTC 2012-04-23 12:35:03
Программа кодирования : HandBrake 0.9.5 2011010300
Обложка : Yes
iTunEXTC : mpaa|R|400|
iTunMOVI : <?xml version="1.0" encoding="UTF-8"?> / <!DOCTYPE plist PUBLIC "-/Apple/DTD PLIST 1.0/EN" "http://www.apple.com/DTDs/PropertyList-1.0.dtd"> / <plist version="1.0"> / <dict> / <key>directors</key> / <array> / <dict> / <key>name</key> / <string>Марк Невелдайн</string> / </dict> / <dict> / <key>name</key> / <string>Брайан Тейлор</string> / </dict> / </array> / <key>screenwriters</key> / <array> / <dict> / <key>name</key> / <string>Марк Невелдайн</string> / </dict> / <dict> / <key>name</key> / <string>Брайан Тейлор</string> / </dict> / </array> / </dict> / </plist>
desc : Он заряжен, чтобы вернуть свое сердце...
ldes : Он умер, но обещал вернуться! Не чудом, а благодаря современным медицинским технологиям Чев Челиос получает новое сердце и новый шанс отомстить своим врагам. Теперь для постоянной подзарядки ему требуется электрический разряд мощностью не меньше, чем у автомобильного аккумулятора.
stik : 9
Видео
Идентификатор : 1
Формат : AVC
Формат/Информация : Advanced Video Codec
Профиль формата : [email protected]
Параметр CABAC формата : Нет
Параметр ReFrames формата : 4 кадра
Идентификатор кодека : avc1
Идентификатор кодека/Информация : Advanced Video Coding
Продолжительность : 1 ч. 35 м.
Вид битрейта : Переменный
Битрейт : 960 Кбит/сек
Ширина : 608 пикселей
Высота : 320 пикселей
Соотношение сторон : 1,900
Режим частоты кадров : Переменный
Частота кадров : 23,976 кадра/сек
Минимальная частота кадров : 23,810 кадра/сек
Максимальная частота кадров : 24,390 кадра/сек
Цветовое пространство : YUV
Субдискретизация насыщенности : 4:2:0
Битовая глубина : 8 бит
Тип развёртки : Прогрессивная
Бит/(Пиксели*Кадры) : 0.206
Размер потока : 658 Мбайт (71%)
Библиотека кодирования : x264 core 112
Настройки программы : cabac=0 / ref=4 / deblock=1:0:0 / analyse=0x1:0x131 / me=umh / subme=6 / psy=1 / psy_rd=0.00:0.00 / mixed_ref=1 / me_range=16 / chroma_me=1 / trellis=0 / 8x8dct=0 / cqm=0 / deadzone=21,11 / fast_pskip=0 / chroma_qp_offset=0 / threads=3 / sliced_threads=0 / nr=0 / decimate=1 / interlaced=0 / constrained_intra=0 / bframes=0 / weightp=0 / keyint=240 / keyint_min=23 / scenecut=40 / intra_refresh=0 / rc_lookahead=40 / rc=2pass / mbtree=1 / bitrate=960 / ratetol=1.0 / qcomp=0.60 / qpmin=3 / qpmax=51 / qpstep=4 / cplxblur=20.0 / qblur=0.5 / ip_ratio=1.40 / aq=1:1.00
Дата кодирования : UTC 2012-04-23 09:57:55
Дата пометки : UTC 2012-04-23 11:14:58
Основные цвета : BT.601-6 525, BT.1358 525, BT.1700 NTSC, SMPTE 170M
Характеристики трансфера : BT.709-5, BT.1361
Коэффициенты матрицы : BT.601-6 525, BT.1358 525, BT.1700 NTSC, SMPTE 170M
Аудио #1
Идентификатор : 2
Формат : AAC
Формат/Информация : Advanced Audio Codec
Профиль формата : LC
Идентификатор кодека : 40
Продолжительность : 1 ч. 35 м.
Вид битрейта : Переменный
Битрейт : 128 Кбит/сек
Максимальный битрейт : 215 Кбит/сек
Каналы : 2 канала
Расположение каналов : Front: L R
Частота : 48,0 КГц
Метод сжатия : С потерями
Размер потока : 87,4 Мбайт (9%)
Дата кодирования : UTC 2012-04-23 09:57:55
Дата пометки : UTC 2012-04-23 11:14:57
Аудио #2
Идентификатор : 3
Формат : AAC
Формат/Информация : Advanced Audio Codec
Профиль формата : LC
Идентификатор кодека : 40
Продолжительность : 1 ч. 35 м.
Вид битрейта : Переменный
Битрейт : 128 Кбит/сек
Максимальный битрейт : 179 Кбит/сек
Каналы : 2 канала
Расположение каналов : Front: L R
Частота : 48,0 КГц
Метод сжатия : С потерями
Размер потока : 87,6 Мбайт (9%)
Дата кодирования : UTC 2012-04-23 09:57:55
Дата пометки : UTC 2012-04-23 11:14:57
Аудио #3
Идентификатор : 4
Формат : AAC
Формат/Информация : Advanced Audio Codec
Профиль формата : LC
Идентификатор кодека : 40
Продолжительность : 1 ч. 35 м.
Вид битрейта : Переменный
Битрейт : 128 Кбит/сек
Максимальный битрейт : 226 Кбит/сек
Каналы : 2 канала
Расположение каналов : Front: L R
Частота : 48,0 КГц
Метод сжатия : С потерями
Размер потока : 87,4 Мбайт (9%)
Дата кодирования : UTC 2012-04-23 09:57:55
Дата пометки : UTC 2012-04-23 11:14:57
Скриншоты







Вернуться к началу
 Профиль Отправить личное сообщение  
 
   Похожие торренты   Автор   Торрент   Размер 
В этой теме нет новых непрочитанных сообщений. Адреналин: Высокое напряжение / Crank: High Voltage [криминал, боевик, комедия, 2009] BDRip 1080p, Dub

salma3

13 | 15

7.96 ГБ

В этой теме нет новых непрочитанных сообщений. Адренал: Высокое напряжение / Crank: High Voltage [фэнтези, боевик, драма, 2009] BDRip 720p, Dub

salma3

46 | 16

10.13 ГБ

В этой теме нет новых непрочитанных сообщений. Призрачный гонщик 2 / Ghost Rider: Spirit of Vengeance (Марк Невелдайн, Брайан Тейлор) [2011, фэнтези, боевик, триллер, HQRip] Лицензия

marya111

2 | 1

1.46 ГБ

В этой теме нет новых непрочитанных сообщений. Смертельное напряжение / Deadly Voltage [драма, 2016] HDRip, Mvo

salma3

214 | 72

1.37 ГБ

В этой теме нет новых непрочитанных сообщений. Адреналин / Crank [Боевик, триллер, криминал, 2006] BDRip 720p, Dub [Director’s Cut]

salma3

1 | 52

5.08 ГБ

В этой теме нет новых непрочитанных сообщений. Ватиканские записи / The Vatican Tapes (Марк Невелдайн) [ужасы, триллер, 2015] HDRip-AVC, Dub [iTunes]

Dracon

83 | 1

1.64 ГБ

В этой теме нет новых непрочитанных сообщений. Cailey Taylor (114) (Kailey Taylor, Calie Taylor, Jamie Lynn, Kelly Taylor, Caily Taylor) MegaPack [2002-2011, All Sex, MILF, Big Tits, Anal, DP, IR, GangBang]

salma3

13 | 4

21.79 ГБ


Начать новую тему Ответить на тему  [ 1 сообщение ] 




Для Мосгорсуда, Роскомнадзора и рекламодателей:: mosgorsud-torrent[собачка]yandex.ru
cron