Торрент файл
скачать торрент магнет ссылка Добавлен: 12 янв 2013, 23:47
Размер: 3.76 ГБ
Сидеров: 2
Личеров: 3
Автор

СообщениеДобавлено: 12 янв 2013, 23:47 

Не в сети
Супермодератор
Аватара пользователя
Дата регистрации:
11 апр 2010, 18:10
Спасибо: 5995 / 7
Сообщения: 56685
id="p-25224744-1">Гарри Поттер и Тайная Комната / Harry Potter and the Chamber of Secrets«Зло вернулось в Хогвартс»

Страна: США, Германия, Великобритания
Жанр: фэнтези, детектив, приключения, семейный
Год выпуска: 2002
Продолжительность: 02:40:56
Перевод: Профессиональный (полное дублирование)
Cубтитры: есть
Оригинальная аудиодорожка: английский
Режиссер: Крис Коламбус
Сценарий: Стивен Кловз, Дж.К. Роулинг
Продюсер: Дэвид Хейман, Майкл Барнатан, Дэвид Баррон
В ролях: Дэниэл Рэдклифф, Руперт Гринт, Эмма Уотсон, Алан Рикман, Ричард Гриффитс, Фиона Шоу, Гарри Меллинг, Тоби Джонс, Джим Нортон, Вероника Клиффорд, Джеймс Фелпс
Описание: Гарри Поттер переходит на второй курс Школы чародейства и волшебства Хогвартс. Эльф Добби предупреждает Гарри об опасности, которая поджидает его там, и просит больше не возвращаться в школу.
Качество: BDRip
Исходник: BDRip 720p
Формат: m4v
Видео кодек: H.264
Аудио кодек: AAC
Видео: 1280x534, 2996 Kbps, 23,976 fps
Аудио RUS: 48 kHz, AAC, 2ch, 180 kbps - Профессиональный (полное дублирование)
Аудио ENG: 48 kHz, AAC, 2ch, 166 kbps - Оригинал
MediaInfo
Код:
Код:
Полное имя : D:\Harry Potter and the Chamber of Secrets.m4v
Формат : MPEG-4
Идентификатор кодека : M4V
Размер файла : 3,76 Гбайт
Продолжительность : 2 ч. 40 м.
Общий поток : 3348 Кбит/сек
Название фильма : Гарри Поттер и тайная комната
Исполнитель : Chris Columbus
Жанр : Kids & Family
Дата записи : UTC 2003-04-11 07:00:00
Дата кодирования : UTC 2011-12-10 04:00:13
Дата пометки : UTC 2011-12-11 04:06:39
Обложка : Yes
desc : Гарри Поттер переходит на второй курс Школы чародейства и волшебства Хогвартс. Эльф Добби предупреждает Гарри об опасности, которая поджидает его там, и просит больше не возвращаться в школу.
ldes : Гарри Поттер переходит на второй курс Школы чародейства и волшебства Хогвартс. Эльф Добби предупреждает Гарри об опасности, которая поджидает его там, и просит больше не возвращаться в школу.
hdvd : 1
stik : 0
cnID : 272931585
xid : iPad:vendor_id:2003-688
iTunEXTC : mpaa|PG|200|
iTunMOVI : / / / / cast / / / name / Дэниэл Рэдклифф / / / name / Руперт Гринт / / / name / Эмма Уотсон / / / name / Том Фелтон / / / name / Джейсон Айзекс / / / name / Робби Колтрейн / / / name / Кеннет Брэна / / / name / Алан Рикман / / / name / Ричард Харрис / / / name / Мэгги Смит / / / directors / / / name / Крис Коламбус / / / producers / / / name / Дэвид Хейман / / / name / Майкл Барнатан / / / name / Дэвид Баррон / / / screenwriters / / / name / Стивен Кловз / / / name / Дж.К. Роулинг / / / /
Видео
Идентификатор : 1
Формат : AVC
Формат/Информация : Advanced Video Codec
Профиль формата : [email protected]
Параметр CABAC формата : Да
Параметр ReFrames формата : 11 кадры
Идентификатор кодека : avc1
Идентификатор кодека/Информация : Advanced Video Coding
Продолжительность : 2 ч. 40 м.
Вид битрейта : Переменный
Битрейт : 2996 Кбит/сек
Максимальный битрейт : 11,5 Мбит/сек
Ширина : 1280 пикс.
Высота : 534 пикс.
Соотношение сторон : 2,35:1
Режим частоты кадров : Постоянный
Частота кадров : 23,976 кадр/сек
Цветовое пространство : YUV
Подвыборка цветности : 4:2:0
Битовая глубина : 8 бит
Тип развёртки : Прогрессивная
Бит/(Пиксели*Кадры) : 0.183
Размер потока : 3,37 Гбайт (89%)
Заголовок : Harry Potter and the Chamber of Secrets
Библиотека кодирования : x264 core 94 r1564 a927654
Настройки программы : cabac=1 / ref=11 / deblock=1:-2:-2 / analyse=0x3:0x133 / me=umh / subme=9 / psy=1 / psy_rd=1.20:0.00 / mixed_ref=1 / me_range=64 / chroma_me=1 / trellis=2 / 8x8dct=1 / cqm=0 / deadzone=21,11 / fast_pskip=0 / chroma_qp_offset=-2 / threads=9 / sliced_threads=0 / nr=0 / decimate=1 / interlaced=0 / constrained_intra=0 / bframes=16 / b_pyramid=2 / b_adapt=2 / b_bias=0 / direct=3 / wpredb=1 / wpredp=2 / keyint=250 / keyint_min=25 / scenecut=40 / intra_refresh=0 / rc_lookahead=60 / rc=crf / mbtree=0 / crf=18.9 / qcomp=0.60 / qpmin=10 / qpmax=51 / qpstep=4 / vbv_maxrate=50000 / vbv_bufsize=50000 / crf-max=0.0 / ip_ratio=1.40 / pb_ratio=1.30 / aq=1:1.10 / nal_hrd=none
Язык : English
Дата кодирования : UTC 2011-12-10 04:00:13
Дата пометки : UTC 2011-12-10 04:02:56
Аудио #1
Идентификатор : 2
Формат : AAC
Формат/Информация : Advanced Audio Codec
Профиль формата : LC
Идентификатор кодека : 40
Продолжительность : 2 ч. 40 м.
Вид битрейта : Переменный
Битрейт : 180 Кбит/сек
Максимальный битрейт : 276 Кбит/сек
Канал(ы) : 2 канала(ов)
Расположение каналов : Front: L R
Частота : 48,0 КГц
Метод сжатия : С потерями
Размер потока : 207 Мбайт (5%)
Заголовок : Russian stereo
Язык : Russian
Дата кодирования : UTC 2011-12-10 04:02:34
Дата пометки : UTC 2011-12-10 04:02:56
Аудио #2
Идентификатор : 3
Формат : AAC
Формат/Информация : Advanced Audio Codec
Профиль формата : LC
Идентификатор кодека : 40
Продолжительность : 2 ч. 40 м.
Вид битрейта : Переменный
Битрейт : 166 Кбит/сек
Максимальный битрейт : 275 Кбит/сек
Канал(ы) : 2 канала(ов)
Расположение каналов : Front: L R
Частота : 48,0 КГц
Метод сжатия : С потерями
Размер потока : 191 Мбайт (5%)
Заголовок : English stereo
Язык : English
Дата кодирования : UTC 2011-12-10 04:02:45
Дата пометки : UTC 2011-12-10 04:02:56
Текст #1
Идентификатор : 4
Формат : Timed text
Режим смешивания : sbtl
Идентификатор кодека : tx3g
Продолжительность : 1 ч. 29 м.
Вид битрейта : Переменный
Битрейт : 0
Размер потока : 263 байт (0%)
Заголовок : Forced
Язык : Russian
Дата кодирования : UTC 2011-12-10 04:02:55
Дата пометки : UTC 2011-12-10 04:02:56
Текст #2
Идентификатор : 5
Формат : Timed text
Режим смешивания : sbtl
Идентификатор кодека : tx3g
Продолжительность : 2 ч. 29 м.
Вид битрейта : Переменный
Битрейт : 90 бит/сек
Размер потока : 99,1 Кбайт (0%)
Заголовок : Full
Язык : Russian
Дата кодирования : UTC 2011-12-10 04:02:55
Дата пометки : UTC 2011-12-10 04:02:56
Текст #3
Идентификатор : 6
Формат : Timed text
Режим смешивания : sbtl
Идентификатор кодека : tx3g
Продолжительность : 2 ч. 29 м.
Вид битрейта : Переменный
Битрейт : 55 бит/сек
Размер потока : 60,9 Кбайт (0%)
Заголовок : Original
Язык : English
Дата кодирования : UTC 2011-12-10 04:02:56
Дата пометки : UTC 2011-12-10 04:02:56
Текст #4
Идентификатор : 7
Формат : Apple text
Идентификатор кодека : text
Продолжительность : 2 ч. 40 м.
Вид битрейта : Переменный
Битрейт : 1 бит/сек
Размер потока : 1,13 Кбайт (0%)
Дата кодирования : UTC 2011-12-11 04:06:26
Дата пометки : UTC 2011-12-11 04:06:26

Log
Код:
Код:
---[NoImage] x264 [info]: frame I:1963 Avg QP:16.08 size: 71253 PSNR Mean Y:47.18 U:50.93 V:51.80 Avg:47.95 Global:47.52
---[NoImage] x264 [info]: frame P:48600 Avg QP:16.92 size: 29176 PSNR Mean Y:46.19 U:52.17 V:53.04 Avg:46.95 Global:46.32
---[NoImage] x264 [info]: frame B:180953 Avg QP:18.93 size: 11376 PSNR Mean Y:44.89 U:50.77 V:51.85 Avg:45.85 Global:45.34
---[NoImage] x264 [info]: consecutive B-frames: 0.9% 2.3% 4.9% 27.6% 11.6% 39.6% 2.9% 8.9% 0.4% 0.3% 0.1% 0.3% 0.1% 0.0% 0.0% 0.0% 0.0%
---[NoImage] x264 [info]: mb I I16..4: 2.9% 87.4% 9.6%
---[NoImage] x264 [info]: mb P I16..4: 1.4% 13.1% 1.2% P16..4: 48.3% 28.0% 5.4% 0.2% 0.2% skip: 2.2%
---[NoImage] x264 [info]: mb B I16..4: 0.1% 0.9% 0.1% B16..8: 43.1% 11.9% 2.5% direct: 8.4% skip:33.3% L0:44.1% L1:46.6% BI: 9.3%
---[NoImage] x264 [info]: 8x8 transform intra:84.8% inter:62.3%
---[NoImage] x264 [info]: direct mvs spatial:100.0% temporal:0.0%
---[NoImage] x264 [info]: coded y,uvDC,uvAC intra: 87.0% 82.0% 59.5% inter: 29.7% 26.4% 2.9%
---[NoImage] x264 [info]: i16 v,h,dc,p: 50% 12% 10% 29%
---[NoImage] x264 [info]: i8 v,h,dc,ddl,ddr,vr,hd,vl,hu: 13% 7% 7% 10% 13% 13% 12% 12% 13%
---[NoImage] x264 [info]: i4 v,h,dc,ddl,ddr,vr,hd,vl,hu: 13% 5% 4% 10% 16% 15% 13% 12% 13%
---[NoImage] x264 [info]: i8c dc,h,v,p: 46% 22% 18% 14%
---[NoImage] x264 [info]: Weighted P-Frames: Y:6.3%
---[NoImage] x264 [info]: ref P L0: 43.6% 9.6% 17.2% 7.4% 5.8% 4.5% 3.8% 2.3% 2.0% 1.8% 1.7% 0.2% 0.0%
---[NoImage] x264 [info]: ref B L0: 73.7% 11.0% 5.5% 2.8% 2.1% 1.7% 1.4% 0.9% 0.5% 0.3%
---[NoImage] x264 [info]: ref B L1: 92.9% 7.1%
---[NoImage] x264 [info]: SSIM Mean Y:0.9818407
---[NoImage] x264 [info]: PSNR Mean Y:45.179 U:51.063 V:52.097 Avg:46.096 Global:45.545 kb/s:2996.18

Скриншоты
Для просмотра данного релиза на компьютере с ОС Windows рекомендуется использовать VLC media player



Вернуться к началу
 Профиль Отправить личное сообщение  
 
   Похожие торренты   Автор   Торрент   Размер 
В этой теме нет новых непрочитанных сообщений. Гарри Поттер и философский камень / Harry Potter and the Sorcerer's Stone [Фэнтези, Приключения, Семейный, 2001] BDRip-HEVC 2160p, Dub

salma3

17 | 1

7.3 ГБ

В этой теме нет новых непрочитанных сообщений. Гарри Поттер и философский камень / Harry Potter and the Sorcerer's Stone [фэнтези, приключения, семейный, 2001] WEB-DL 1080p, Dub [Open Matte]

salma3

23 | 7

22.78 ГБ

В этой теме нет новых непрочитанных сообщений. Гарри Поттер и Принц-полукровка / Harry Potter and the Half-Blood Prince [Фэнтези, мелодрама, приключения, 2009] BDRemux 2160p, Dub [4K]

salma3

6 | 20

63.93 ГБ

В этой теме нет новых непрочитанных сообщений. Гарри Поттер и Дары смерти: Часть II / Harry Potter and the Deathly Hallows: Part 2 [Фэнтези, приключения, экранизация, 2011] BDRemux 2160p, Dub [4K]

salma3

5 | 18

50.08 ГБ

В этой теме нет новых непрочитанных сообщений. Тайная жизнь домашних животных / The Secret Life of Pets (Ярроу Чейни, Крис Рено) [2016, мультфильм, комедия, приключения, семейный, BDRip 720p | iTunes]

marya111

298 | 32

4.21 ГБ

В этой теме нет новых непрочитанных сообщений. Большой и добрый великан / The BFG [фэнтези, приключения, семейный, 2016] BDRip 720p, Dub [iPad] [Лицензия]

salma3

0 | 0

2.26 ГБ

В этой теме нет новых непрочитанных сообщений. Пиксели / Pixels (Крис Коламбус) [фантастика, боевик, комедия, 2015] BDRip 720p, Dub+Sub [Лицензия]

Dracon

245 | 18

6.79 ГБ


Начать новую тему Ответить на тему  [ 1 сообщение ] 




Для Мосгорсуда, Роскомнадзора и рекламодателей:: mosgorsud-torrent[собачка]yandex.ru
cron