Торрент файл
скачать торрент магнет ссылка Добавлен: 12 янв 2013, 23:47
Размер: 2.2 ГБ
Сидеров: 1
Личеров: 2
Автор

СообщениеДобавлено: 12 янв 2013, 23:47 

Не в сети
Супермодератор
Аватара пользователя
Дата регистрации:
11 апр 2010, 18:10
Спасибо: 5996 / 7
Сообщения: 56684
id="p-25224744-1">
Красавица и чудовище / Beauty and the Beast«The most beautiful love story ever told as it has never been seen before»


Страна: США
Жанр: мультфильм, мюзикл, семейный
Год выпуска: 1991
Продолжительность: 01:31:44

Перевод #1: Профессиональный (полное дублирование)
Перевод #2: Профессиональный (многоголосый закадровый)
Оригинальная аудиодорожка: Английский (коментарии)
Cубтитры: Русские(3 варианта), Английские
Режиссер: Гари Труздейл / Gary Trousdale, Кирк Уайз / Kirk Wise

В ролях: Пейдж О’Хара (Belle, озвучка), Робби Бенсон (Beast, озвучка), Ричард Уайт (Gaston, озвучка), Джерри Орбак (Lumiere, озвучка), Дэвид Огден Стайерз (Cogsworth, рассказчик, озвучка), Анджела Лэнсбери (Mrs. Potts, озвучка), Брэдли Пирс (Chip, озвучка), Рекс Эверхарт (Maurice, озвучка), Джесси Корти (Lefou, озвучка), Хэл Смит (Philippe, озвучка), Джо Энн Уорли (Wardrobe, озвучка), Мэри Кэй Бергман (Babette, озвучка)
Дублёры: Сауле Искакова (Belle), Олег Куликович (Beast), Александр Никифоров (Beast (вокал)), Андрей Тенетко (Gaston), Виктор Костецкий (Lumiere), Игорь Шибанов (Cogsworth), Валерий Никитенко (Narrator), Елена Дриацкая (Mrs. Potts), Артем Сергеев (Chip), Николай Федорцов (Maurice), Андрей Матвеев (Lefou), Елена Терновая (Wardrobe)


Описание: Фильм приглашает в зачарованный замок, скрытый в чаще темного волшебного леса. Его хозяин ужасное Чудовище, которого все боятся и ненавидят. Лишь самая прекрасная и смелая девушка в мире по имени Белль способна разгадать тайну страшного, а на самом деле, очень несчастного хозяина замка и разрушить чары, обрекшие его на вечное пребывание в шкуре жуткого зверя.
Только тот, кто растопит лед в сердце чудовища и сможет полюбить его таким, какой он есть, сможет вернуть ему человеческий облик, но, чтобы спасти хозяина зачарованного замка, Белль придется выступить против всех: ведь жители ее деревни, подстрекаемые злобным охотником Гастоном, хотят погубить гордое и доброе Чудовище…

Качество видео: BDRip - Исходник BDRip
Формат видео: m4v
Видео кодек: H.264
Аудио кодек: AAC
Видео: 1280х720 (16:9), 23,976 fps, H.264 3500 kbps avg, 0.134 bit/pixel
Аудио #1: Russian, 48,0 kHz, AAC LC, 2 ch, 160 kbps avg | DUB
Аудио #2: Russian, 48,0 kHz, AAC LC, 2 ch, 160 kbps avg | MVO
Аудио #3: English, 48,0 kHz, AAC LC, 2 ch, 160 kbps avg | Original
MediaInfo
Код:
Код:
General
Complete name                            : D:\iPad\Beauty and the Beast\Beauty.and.the.Beast.1991.BDRip.m4v
Format                                   : MPEG-4
Format profile                           : Base Media / Version 2
Codec ID                                 : mp42
File size                                : 2.20 GiB
Duration                                 : 1h 31mn
Overall bit rate mode                    : Variable
Overall bit rate                         : 3 440 Kbps
Movie name                               : Красавица и чудовище
Performer                                : Гари Труздейл, Кирк Уайз
Genre                                    : мультфильм, мюзикл, семейный
Recorded date                            : UTC 1991-11-13 07:00:00
Encoded date                             : UTC 2011-11-04 14:23:51
Tagged date                              : UTC 2011-11-04 17:21:08
Writing application                      : HandBrake 0.9.5 2011010300
Cover                                    : Yes
soar                                     : Гари Труздейл, Кирк Уайз
desc                                     : Фильм приглашает в зачарованный замок, скрытый в чаще темного волшебного леса. Его хозяин ужасное Чудовище, которого все боятся и ненавидят
ldes                                     : Фильм приглашает в зачарованный замок, скрытый в чаще темного волшебного леса. Его хозяин ужасное Чудовище, которого все боятся и ненавидят. Лишь самая прекрасная и смелая девушка в мире по имени Белль способна разгадать тайну страшного, а на самом деле, очень несчастного хозяина замка и разрушить чары, обрекшие его на вечное пребывание в шкуре жуткого зверя.Только тот, кто растопит лед в сердце чудовища и сможет полюбить его таким, какой он есть, сможет вернуть ему человеческий облик, но, чтобы спасти хозяина зачарованного замка, Белль придется выступить против всех: ведь жители ее деревни, подстрекаемые злобным охотником Гастоном, хотят погубить гордое и доброе Чудовище…
hdvd                                     : 1
cnID                                     : 439510925
xid                                      : RG-Apple:vendor_id:1991-540
iTunEXTC                                 : mpaa|G|100|
iTunMOVI                                 : <?xml version="1.0" encoding="UTF-8"?> / <!DOCTYPE plist PUBLIC "-/Apple/DTD PLIST 1.0/EN" "http:/www.apple.com/DTDs/PropertyList-1.0.dtd"> / <plist version="1.0"> /  <dict> /   <key>cast</key> /   <array> /    <dict> /     <key>name</key> /     <string>Пейдж О’Хара</string> /    </dict> /    <dict> /     <key>name</key> /     <string>Робби Бенсон</string> /    </dict> /    <dict> /     <key>name</key> /     <string>Ричард Уайт</string> /    </dict> /    <dict> /     <key>name</key> /     <string>Джерри Орбак</string> /    </dict> /    <dict> /     <key>name</key> /     <string>Дэвид Огден Стайерз</string> /    </dict> /    <dict> /     <key>name</key> /     <string>Анджела Лэнсбери</string> /    </dict> /    <dict> /     <key>name</key> /     <string>Брэдли Пирс</string> /    </dict> /    <dict> /     <key>name</key> /     <string>Рекс Эверхарт</string> /    </dict> /    <dict> /     <key>name</key> /     <string>Джесси Корти</string> /    </dict> /    <dict> /     <key>name</key> /     <string>Хэл Смит</string> /    </dict> /   </array> /   <key>directors</key> /   <array> /    <dict> /     <key>name</key> /     <string>Гари Труздейл</string> /    </dict> /    <dict> /     <key>name</key> /     <string>Кирк Уайз</string> /    </dict> /   </array> /   <key>producers</key> /   <array> /    <dict> /     <key>name</key> /     <string>Ховард Эшман</string> /    </dict> /    <dict> /     <key>name</key> /     <string>Дон Хан</string> /    </dict> /    <dict> /     <key>name</key> /     <string>Сара МакАртур</string> /    </dict> /   </array> /   <key>screenwriters</key> /   <array> /    <dict> /     <key>name</key> /     <string>Роджер Аллерс</string> /    </dict> /    <dict> /     <key>name</key> /     <string>Джо Рэнфт</string> /    </dict> /    <dict> /     <key>name</key> /     <string>Крис Сандерс</string> /    </dict> /   </array> /  </dict> / </plist>
Video
ID                                       : 1
Format                                   : AVC
Format/Info                              : Advanced Video Codec
Format profile                           : [email protected]
Format settings, CABAC                   : Yes
Format settings, ReFrames                : 9 frames
Codec ID                                 : avc1
Codec ID/Info                            : Advanced Video Coding
Duration                                 : 1h 31mn
Bit rate mode                            : Variable
Bit rate                                 : 2 950 Kbps
Width                                    : 1 280 pixels
Height                                   : 720 pixels
Display aspect ratio                     : 16:9
Frame rate mode                          : Variable
Frame rate                               : 23.976 fps
Minimum frame rate                       : 23.810 fps
Maximum frame rate                       : 1 000.000 fps
Color space                              : YUV
Chroma subsampling                       : 4:2:0
Bit depth                                : 8 bits
Scan type                                : Progressive
Bits/(Pixel*Frame)                       : 0.134
Stream size                              : 1.89 GiB (86%)
Writing library                          : x264 core 112
Encoding settings                        : cabac=1 / ref=9 / deblock=1:0:0 / analyse=0x3:0x113 / me=umh / subme=9 / psy=1 / psy_rd=1.00:0.00 / mixed_ref=1 / me_range=32 / chroma_me=1 / trellis=1 / 8x8dct=1 / cqm=0 / deadzone=21,11 / fast_pskip=1 / chroma_qp_offset=-2 / threads=12 / sliced_threads=0 / nr=0 / decimate=1 / interlaced=0 / constrained_intra=0 / bframes=6 / b_pyramid=2 / b_adapt=1 / b_bias=0 / direct=1 / weightb=1 / open_gop=0 / weightp=2 / keyint=240 / keyint_min=23 / scenecut=40 / intra_refresh=0 / rc_lookahead=40 / rc=2pass / mbtree=1 / bitrate=2950 / ratetol=1.0 / qcomp=0.60 / qpmin=3 / qpmax=51 / qpstep=4 / cplxblur=20.0 / qblur=0.5 / ip_ratio=1.40 / aq=1:1.00
Encoded date                             : UTC 2011-11-04 14:23:51
Tagged date                              : UTC 2011-11-04 17:00:47
Color primaries                          : BT.709-5, BT.1361, IEC 61966-2-4, SMPTE RP177
Transfer characteristics                 : BT.709-5, BT.1361
Matrix coefficients                      : BT.709-5, BT.1361, IEC 61966-2-4 709, SMPTE RP177
Audio #1
ID                                       : 2
Format                                   : AAC
Format/Info                              : Advanced Audio Codec
Format profile                           : LC
Codec ID                                 : 40
Duration                                 : 1h 31mn
Bit rate mode                            : Variable
Bit rate                                 : 160 Kbps
Maximum bit rate                         : 261 Kbps
Channel(s)                               : 2 channels
Channel positions                        : Front: L R
Sampling rate                            : 48.0 KHz
Compression mode                         : Lossy
Stream size                              : 105 MiB (5%)
Language                                 : Russian
Encoded date                             : UTC 2011-11-04 14:23:51
Tagged date                              : UTC 2011-11-04 17:00:46
Audio #2
ID                                       : 3
Format                                   : AAC
Format/Info                              : Advanced Audio Codec
Format profile                           : LC
Codec ID                                 : 40
Duration                                 : 1h 31mn
Bit rate mode                            : Variable
Bit rate                                 : 160 Kbps
Maximum bit rate                         : 317 Kbps
Channel(s)                               : 2 channels
Channel positions                        : Front: L R
Sampling rate                            : 48.0 KHz
Compression mode                         : Lossy
Stream size                              : 105 MiB (5%)
Language                                 : Russian
Encoded date                             : UTC 2011-11-04 14:23:51
Tagged date                              : UTC 2011-11-04 17:00:46
Audio #3
ID                                       : 4
Format                                   : AAC
Format/Info                              : Advanced Audio Codec
Format profile                           : LC
Codec ID                                 : 40
Duration                                 : 1h 31mn
Bit rate mode                            : Variable
Bit rate                                 : 160 Kbps
Maximum bit rate                         : 269 Kbps
Channel(s)                               : 2 channels
Channel positions                        : Front: L R
Sampling rate                            : 48.0 KHz
Compression mode                         : Lossy
Stream size                              : 105 MiB (5%)
Language                                 : English
Encoded date                             : UTC 2011-11-04 14:23:51
Tagged date                              : UTC 2011-11-04 17:00:46
Text #1
ID                                       : 5
Format                                   : Timed text
Muxing mode                              : sbtl
Codec ID                                 : tx3g
Duration                                 : 1h 31mn
Bit rate mode                            : Variable
Bit rate                                 : 109 bps
Stream size                              : 73.2 KiB (0%)
Language                                 : Russian
Encoded date                             : UTC 2011-11-04 14:23:51
Tagged date                              : UTC 2011-11-04 17:00:11
Text #2
ID                                       : 6
Format                                   : Timed text
Muxing mode                              : sbtl
Codec ID                                 : tx3g
Duration                                 : 1h 25mn
Bit rate mode                            : Variable
Bit rate                                 : 105 bps
Stream size                              : 65.5 KiB (0%)
Language                                 : Russian
Encoded date                             : UTC 2011-11-04 14:23:51
Tagged date                              : UTC 2011-11-04 16:54:53
Text #3
ID                                       : 7
Format                                   : Timed text
Muxing mode                              : sbtl
Codec ID                                 : tx3g
Duration                                 : 1h 25mn
Bit rate mode                            : Variable
Bit rate                                 : 100 bps
Stream size                              : 62.3 KiB (0%)
Language                                 : Russian
Encoded date                             : UTC 2011-11-04 14:23:51
Tagged date                              : UTC 2011-11-04 16:54:50
Text #4
ID                                       : 8
Format                                   : Timed text
Muxing mode                              : sbtl
Codec ID                                 : tx3g
Duration                                 : 1h 31mn
Bit rate mode                            : Variable
Bit rate                                 : 194 bps
Stream size                              : 130 KiB (0%)
Language                                 : Russian
Encoded date                             : UTC 2011-11-04 14:23:51
Tagged date                              : UTC 2011-11-04 17:00:39
Text #5
ID                                       : 9
Format                                   : Timed text
Muxing mode                              : sbtl
Codec ID                                 : tx3g
Duration                                 : 1h 25mn
Bit rate mode                            : Variable
Bit rate                                 : 85 bps
Stream size                              : 53.4 KiB (0%)
Language                                 : English
Encoded date                             : UTC 2011-11-04 14:23:51
Tagged date                              : UTC 2011-11-04 16:56:00
Text #6
ID                                       : 10
Format                                   : Timed text
Muxing mode                              : sbtl
Codec ID                                 : tx3g
Duration                                 : 1h 31mn
Bit rate mode                            : Variable
Bit rate                                 : 219 bps
Stream size                              : 147 KiB (0%)
Language                                 : English
Encoded date                             : UTC 2011-11-04 14:23:51
Tagged date                              : UTC 2011-11-04 17:00:37

x264 log
x264 [info]: frame I:1857 Avg QP:14.04 size:162037 PSNR Mean Y:49.05 U:50.96 V:50.81 Avg:49.53 Global:48.84
x264 [info]: frame P:62747 Avg QP:17.44 size: 22253 PSNR Mean Y:46.25 U:48.34 V:48.05 Avg:46.76 Global:46.12
x264 [info]: frame B:67380 Avg QP:21.71 size: 4937 PSNR Mean Y:46.82 U:48.73 V:48.60 Avg:47.29 Global:46.25
x264 [info]: consecutive B-frames: 28.3% 14.7% 8.7% 13.9% 17.8% 11.8% 4.8%
x264 [info]: mb I I16..4: 16.9% 53.1% 30.0%
x264 [info]: mb P I16..4: 2.8% 3.5% 1.9% P16..4: 27.7% 12.1% 9.9% 0.0% 0.0% skip:42.0%
x264 [info]: mb B I16..4: 0.3% 0.1% 0.2% B16..8: 23.5% 4.0% 1.7% direct: 1.1% skip:69.1% L0:47.9% L1:48.3% BI: 3.8%
x264 [info]: 8x8 transform intra:44.4% inter:61.1%
x264 [info]: coded y,uvDC,uvAC intra: 56.8% 73.2% 52.8% inter: 11.7% 15.3% 5.0%
x264 [info]: i16 v,h,dc,p: 66% 14% 9% 11%
x264 [info]: i8 v,h,dc,ddl,ddr,vr,hd,vl,hu: 9% 7% 14% 10% 11% 11% 11% 15% 12%
x264 [info]: i4 v,h,dc,ddl,ddr,vr,hd,vl,hu: 11% 8% 15% 10% 12% 11% 10% 11% 12%
x264 [info]: i8c dc,h,v,p: 48% 23% 19% 10%
x264 [info]: Weighted P-Frames: Y:2.3% UV:1.7%
x264 [info]: ref P L0: 53.9% 6.7% 14.6% 7.4% 4.7% 4.2% 3.2% 2.1% 1.8% 1.3% 0.0%
x264 [info]: ref B L0: 69.2% 13.0% 8.6% 3.1% 2.6% 1.9% 1.4% 0.4%
x264 [info]: ref B L1: 87.7% 12.3%
x264 [info]: SSIM Mean Y:0.9882907 (19.315db)
x264 [info]: PSNR Mean Y:46.579 U:48.574 V:48.366 Avg:47.066 Global:46.218 kb/s:2949.91
Скриншоты

Скриншоты с iPad




Вернуться к началу
 Профиль Отправить личное сообщение  
 
   Похожие торренты   Автор   Торрент   Размер 
В этой теме нет новых непрочитанных сообщений. Красавица и чудовище / Beauty and the Beast [Мюзикл, фэнтези, мелодрама, 2017] BDRip 720p, Dub [Лицензия]

salma3

318 | 579

4.77 ГБ

В этой теме нет новых непрочитанных сообщений. Красавица и чудовище / Beauty and the Beast [мюзикл, фэнтези, мелодрама, семейный, 2017] CAMRip, Dub

salma3

9270 | 1891

2.05 ГБ

В этой теме нет новых непрочитанных сообщений. Красавица и чудовище / Beauty and the Beast [Мюзикл, фэнтези, мелодрама, семейный, 2017] DVD5, Dub

salma3

95 | 28

4.37 ГБ

В этой теме нет новых непрочитанных сообщений. Красавица и чудовище / Beauty and the Beast [Мюзикл, фэнтези, мелодрама, 2017] BDRip, Dub [Лицензия]

salma3

322 | 82

2.18 ГБ

В этой теме нет новых непрочитанных сообщений. Красавица и чудовище / Beauty and the Beast [Мюзикл, фэнтези, мелодрама, 2017] BDRip, Dub [iTunes]

salma3

13592 | 2176

1.46 ГБ

В этой теме нет новых непрочитанных сообщений. Красавица и чудовище / Beauty and the Beast [Мюзикл, фэнтези, мелодрама, 2017] BDRip-AVC, Dub [Лицензия]

salma3

139 | 51

2.84 ГБ

В этой теме нет новых непрочитанных сообщений. Красавица и чудовище / Beauty and the Beast [Мюзикл, фэнтези, мелодрама, 2017] BDRip 1080p, Dub [Лицензия]

salma3

413 | 785

8.38 ГБ


Начать новую тему Ответить на тему  [ 1 сообщение ] 




Для Мосгорсуда, Роскомнадзора и рекламодателей:: mosgorsud-torrent[собачка]yandex.ru
cron