Торрент файл
скачать торрент магнет ссылка Добавлен: 12 янв 2013, 23:46
Размер: 3.84 ГБ
Сидеров: 1
Личеров: 3
Автор

СообщениеДобавлено: 12 янв 2013, 23:46 

Не в сети
Супермодератор
Аватара пользователя
Дата регистрации:
11 апр 2010, 18:10
Спасибо: 5996 / 7
Сообщения: 56684
id="p-25224744-1">Гарри Поттер и Узник Азкабана / Harry Potter and the Prisoner of Azkaban«Something wicked this way comes»

Страна: США, Великобритания
Жанр: фэнтези, детектив, приключения, семейный
Год выпуска: 2004
Продолжительность: 02:21:42
Перевод: Профессиональный (полное дублирование)
Cубтитры: есть
Оригинальная аудиодорожка: английский
Режиссер: Альфонсо Куарон
Сценарий: Стивен Кловз, Дж.К. Роулинг
Продюсер: Крис Коламбус, Дэвид Хейман, Лорни Орлинз
В ролях: Дэниэл Рэдклифф, Эмма Уотсон, Руперт Гринт, Алан Рикман, Ричард Гриффитс, Пэм Феррис, Фиона Шоу, Гарри Меллинг, Адриан Роулинз, Джеральдин Соммервиль, Ли Инглби, Ленни Генри, Джимми Гарднер
Описание: В третьей части экранизации бестселлера о юном волшебнике, полюбившиеся всем герои — Гарри Поттер, Рон и Гермиона — возвращаются уже на третий курс школы чародейства и волшебства «Хогвартс». На этот раз они должны раскрыть тайну узника, сбежавшего из зловещей тюрьмы Азкабан, чье пребывание на воле создает для Гарри смертельную опасность…
Качество: BDRip
Исходник: BDRip 720p
Формат: m4v
Видео кодек: H.264
Аудио кодек: AAC
Видео: 1280x532, 3500 Kbps, 23,976 fps
Аудио RUS: 48 kHz, AAC, 2ch, 186 kbps - Профессиональный (полное дублирование)
Аудио ENG: 48 kHz, AAC, 2ch, 187 kbps - Оригинал
MediaInfo
Код:
Код:
Полное имя : D:\Harry Potter and the Prisoner of Azkaban.m4v
Формат : MPEG-4
Идентификатор кодека : M4V
Размер файла : 3,84 Гбайт
Продолжительность : 2 ч. 21 м.
Общий поток : 3884 Кбит/сек
Название фильма : Гарри Поттер и узник Азкабана
Исполнитель : Alfonso Cuarón
Жанр : Kids & Family
Дата записи : UTC 2004-05-31 08:00:00
Дата кодирования : UTC 2011-12-06 08:34:51
Дата пометки : UTC 2011-12-07 08:54:28
Обложка : Yes
desc : В третьей части экранизации бестселлера о юном волшебнике, полюбившиеся всем герои — Гарри Поттер, Рон и Гермиона — возвращаются уже на третий курс школы чародейства и волшебства «Хогвартс».
ldes : В третьей части экранизации бестселлера о юном волшебнике, полюбившиеся всем герои — Гарри Поттер, Рон и Гермиона — возвращаются уже на третий курс школы чародейства и волшебства «Хогвартс».
hdvd : 1
stik : 0
cnID : 285825306
xid : iPad:vendor_id:2004-322
iTunEXTC : mpaa|PG|200|
iTunMOVI : / / / / cast / / / name / Дэниэл Рэдклифф / / / name / Руперт Гринт / / / name / Эмма Уотсон / / / name / Том Фелтон / / / name / Гари Олдман / / / name / Дэвид Тьюлис / / / name / Майкл Гэмбон / / / name / Алан Рикман / / / name / Мэгги Смит / / / name / Робби Колтрейн / / / directors / / / name / Альфонсо Куарон / / / producers / / / name / Майкл Барнатан / / / name / Крис Каррерас / / / name / Крис Коламбус / / / screenwriters / / / name / Дж.К. Роулинг / / / name / Стивен Кловз / / / /
Видео
Идентификатор : 1
Формат : AVC
Формат/Информация : Advanced Video Codec
Профиль формата : [email protected]
Параметр CABAC формата : Да
Параметр ReFrames формата : 11 кадры
Идентификатор кодека : avc1
Идентификатор кодека/Информация : Advanced Video Coding
Продолжительность : 2 ч. 21 м.
Вид битрейта : Переменный
Битрейт : 3505 Кбит/сек
Максимальный битрейт : 10,8 Мбит/сек
Ширина : 1280 пикс.
Высота : 532 пикс.
Соотношение сторон : 2,40:1
Режим частоты кадров : Постоянный
Частота кадров : 23,976 кадр/сек
Цветовое пространство : YUV
Подвыборка цветности : 4:2:0
Битовая глубина : 8 бит
Тип развёртки : Прогрессивная
Бит/(Пиксели*Кадры) : 0.215
Размер потока : 3,47 Гбайт (90%)
Заголовок : Harry Potter and the Prisoner of Azkaban
Библиотека кодирования : x264 core 94 r1564 a927654
Настройки программы : cabac=1 / ref=11 / deblock=1:-2:-2 / analyse=0x3:0x133 / me=umh / subme=9 / psy=1 / psy_rd=1.10:0.00 / mixed_ref=1 / me_range=64 / chroma_me=1 / trellis=2 / 8x8dct=1 / cqm=0 / deadzone=21,11 / fast_pskip=0 / chroma_qp_offset=-2 / threads=9 / sliced_threads=0 / nr=0 / decimate=1 / interlaced=0 / constrained_intra=0 / bframes=16 / b_pyramid=2 / b_adapt=2 / b_bias=0 / direct=3 / wpredb=1 / wpredp=2 / keyint=250 / keyint_min=25 / scenecut=40 / intra_refresh=0 / rc_lookahead=60 / rc=crf / mbtree=0 / crf=18.2 / qcomp=0.60 / qpmin=10 / qpmax=51 / qpstep=4 / vbv_maxrate=50000 / vbv_bufsize=50000 / crf-max=0.0 / ip_ratio=1.40 / pb_ratio=1.30 / aq=1:1.00 / nal_hrd=none
Язык : English
Дата кодирования : UTC 2011-12-06 08:34:51
Дата пометки : UTC 2011-12-06 08:41:56
Аудио #1
Идентификатор : 2
Формат : AAC
Формат/Информация : Advanced Audio Codec
Профиль формата : LC
Идентификатор кодека : 40
Продолжительность : 2 ч. 21 м.
Вид битрейта : Переменный
Битрейт : 186 Кбит/сек
Максимальный битрейт : 244 Кбит/сек
Канал(ы) : 2 канала(ов)
Расположение каналов : Front: L R
Частота : 48,0 КГц
Метод сжатия : С потерями
Размер потока : 188 Мбайт (5%)
Заголовок : Russian stereo
Язык : Russian
Дата кодирования : UTC 2011-12-06 08:41:12
Дата пометки : UTC 2011-12-06 08:41:56
Аудио #2
Идентификатор : 3
Формат : AAC
Формат/Информация : Advanced Audio Codec
Профиль формата : LC
Идентификатор кодека : 40
Продолжительность : 2 ч. 21 м.
Вид битрейта : Переменный
Битрейт : 187 Кбит/сек
Максимальный битрейт : 246 Кбит/сек
Канал(ы) : 2 канала(ов)
Расположение каналов : Front: L R
Частота : 48,0 КГц
Метод сжатия : С потерями
Размер потока : 189 Мбайт (5%)
Заголовок : English stereo
Язык : English
Дата кодирования : UTC 2011-12-06 08:41:32
Дата пометки : UTC 2011-12-06 08:41:56
Текст #1
Идентификатор : 4
Формат : Timed text
Режим смешивания : sbtl
Идентификатор кодека : tx3g
Продолжительность : 2 ч. 13 м.
Вид битрейта : Переменный
Битрейт : 0
Размер потока : 112 байт (0%)
Заголовок : Forced
Язык : Russian
Дата кодирования : UTC 2011-12-06 08:41:54
Дата пометки : UTC 2011-12-06 08:41:56
Текст #2
Идентификатор : 5
Формат : Timed text
Режим смешивания : sbtl
Идентификатор кодека : tx3g
Продолжительность : 2 ч. 21 м.
Вид битрейта : Переменный
Битрейт : 81 бит/сек
Размер потока : 84,1 Кбайт (0%)
Заголовок : Full
Язык : Russian
Дата кодирования : UTC 2011-12-06 08:41:55
Дата пометки : UTC 2011-12-06 08:41:56
Текст #3
Идентификатор : 6
Формат : Timed text
Режим смешивания : sbtl
Идентификатор кодека : tx3g
Продолжительность : 2 ч. 9 м.
Вид битрейта : Переменный
Битрейт : 60 бит/сек
Размер потока : 56,5 Кбайт (0%)
Заголовок : Original
Язык : English
Дата кодирования : UTC 2011-12-06 08:41:55
Дата пометки : UTC 2011-12-06 08:41:56
Текст #4
Идентификатор : 7
Формат : Apple text
Идентификатор кодека : text
Продолжительность : 2 ч. 21 м.
Вид битрейта : Переменный
Битрейт : 1 бит/сек
Размер потока : 1,18 Кбайт (0%)
Дата кодирования : UTC 2011-12-07 08:53:51
Дата пометки : UTC 2011-12-07 08:53:51

Log
Код:
Код:
---[NoImage] x264 [info]: frame I:1438 Avg QP:16.60 size: 98650 PSNR Mean Y:46.45 U:49.00 V:49.23 Avg:47.14 Global:46.37
---[NoImage] x264 [info]: frame P:47048 Avg QP:17.83 size: 34165 PSNR Mean Y:45.89 U:48.78 V:48.75 Avg:46.48 Global:44.75
---[NoImage] x264 [info]: frame B:155360 Avg QP:19.92 size: 12719 PSNR Mean Y:43.87 U:47.40 V:47.57 Avg:44.73 Global:43.95
---[NoImage] x264 [info]: consecutive B-frames: 1.8% 3.9% 6.1% 30.2% 13.8% 38.2% 2.0% 2.9% 0.3% 0.4% 0.0% 0.2% 0.0% 0.0% 0.0% 0.0% 0.0%
---[NoImage] x264 [info]: mb I I16..4: 8.3% 75.1% 16.6%
---[NoImage] x264 [info]: mb P I16..4: 2.0% 10.6% 1.9% P16..4: 44.0% 25.0% 6.9% 0.5% 0.5% skip: 8.7%
---[NoImage] x264 [info]: mb B I16..4: 0.1% 0.9% 0.3% B16..8: 38.5% 11.6% 3.0% direct: 8.3% skip:37.4% L0:40.9% L1:44.3% BI:14.8%
---[NoImage] x264 [info]: 8x8 transform intra:73.0% inter:57.6%
---[NoImage] x264 [info]: direct mvs spatial:100.0% temporal:0.0%
---[NoImage] x264 [info]: coded y,uvDC,uvAC intra: 79.2% 75.0% 56.2% inter: 32.4% 24.3% 4.2%
---[NoImage] x264 [info]: i16 v,h,dc,p: 71% 10% 7% 11%
---[NoImage] x264 [info]: i8 v,h,dc,ddl,ddr,vr,hd,vl,hu: 13% 8% 9% 9% 13% 12% 13% 11% 13%
---[NoImage] x264 [info]: i4 v,h,dc,ddl,ddr,vr,hd,vl,hu: 36% 5% 7% 7% 10% 9% 9% 8% 9%
---[NoImage] x264 [info]: i8c dc,h,v,p: 50% 20% 18% 13%
---[NoImage] x264 [info]: Weighted P-Frames: Y:3.1%
---[NoImage] x264 [info]: ref P L0: 47.8% 16.2% 15.2% 5.4% 4.2% 3.1% 2.6% 1.6% 1.4% 1.3% 1.2% 0.1% 0.0%
---[NoImage] x264 [info]: ref B L0: 78.7% 9.8% 4.3% 2.1% 1.6% 1.2% 1.0% 0.6% 0.4% 0.2%
---[NoImage] x264 [info]: ref B L1: 94.2% 5.8%
---[NoImage] x264 [info]: SSIM Mean Y:0.9803055
---[NoImage] x264 [info]: PSNR Mean Y:44.359 U:47.731 V:47.850 Avg:45.154 Global:44.135 kb/s:3505.27

Скриншоты
Для просмотра данного релиза на компьютере с ОС Windows рекомендуется использовать VLC media player



Вернуться к началу
 Профиль Отправить личное сообщение  
 
   Похожие торренты   Автор   Торрент   Размер 
В этой теме нет новых непрочитанных сообщений. Гарри Поттер и философский камень / Harry Potter and the Sorcerer's Stone [Фэнтези, Приключения, Семейный, 2001] BDRip-HEVC 2160p, Dub

salma3

17 | 1

7.3 ГБ

В этой теме нет новых непрочитанных сообщений. Гарри Поттер и философский камень / Harry Potter and the Sorcerer's Stone [фэнтези, приключения, семейный, 2001] WEB-DL 1080p, Dub [Open Matte]

salma3

23 | 7

22.78 ГБ

В этой теме нет новых непрочитанных сообщений. Гарри Поттер и Принц-полукровка / Harry Potter and the Half-Blood Prince [Фэнтези, мелодрама, приключения, 2009] BDRemux 2160p, Dub [4K]

salma3

6 | 20

63.93 ГБ

В этой теме нет новых непрочитанных сообщений. Гарри Поттер и Дары смерти: Часть II / Harry Potter and the Deathly Hallows: Part 2 [Фэнтези, приключения, экранизация, 2011] BDRemux 2160p, Dub [4K]

salma3

5 | 18

50.08 ГБ

В этой теме нет новых непрочитанных сообщений. Большой и добрый великан / The BFG [фэнтези, приключения, семейный, 2016] BDRip 720p, Dub [iPad] [Лицензия]

salma3

0 | 0

2.26 ГБ

В этой теме нет новых непрочитанных сообщений. Узник Зенды / The Prisoner of Zenda [комедия, приключения, 1979] WEB-DLRip, Dvo

salma3

0 | 0

1.46 ГБ

В этой теме нет новых непрочитанных сообщений. Грязный Гарри / Dirty Harry [боевик, триллер, криминал, 1971] BDRip 720p, Mvo

salma3

11 | 2

4.28 ГБ


Начать новую тему Ответить на тему  [ 1 сообщение ] 




Для Мосгорсуда, Роскомнадзора и рекламодателей:: mosgorsud-torrent[собачка]yandex.ru
cron