Торрент файл
скачать торрент магнет ссылка Добавлен: 12 янв 2013, 23:46
Размер: 3.8 ГБ
Сидеров: 2
Личеров: 3
Автор

СообщениеДобавлено: 12 янв 2013, 23:46 

Не в сети
Супермодератор
Аватара пользователя
Дата регистрации:
11 апр 2010, 18:10
Спасибо: 5996 / 7
Сообщения: 56684
id="p-25224744-1">Гарри Поттер и Принц-полукровка / Harry Potter and the Half-Blood Prince«Секрет темных сил раскрыт»

Страна: США, Великобритания
Жанр: фэнтези, детектив, приключения, семейный
Год выпуска: 2009
Продолжительность: 02:33:30
Перевод: Профессиональный (полное дублирование)
Cубтитры: есть
Оригинальная аудиодорожка: английский
Режиссер: Дэвид Йэтс
Сценарий: Стивен Кловз, Дж.К. Роулинг
Продюсер: Дэвид Баррон, Дэвид Хейман, Тим Льюис
В ролях: Дэниэл Рэдклифф, Руперт Гринт, Эмма Уотсон, Хелена Бонем Картер, Дэвид Тьюлис, Джим Броудбент, Эларика Галлахер, Робби Колтрейн, Майкл Гэмбон, Мэгги Смит, Алан Рикман, Бонни Райт
Описание: Теперь не только мир волшебников, но и мир маглов ощущает на себе все возрастающую силу Волан-де-Морта, а Хогвартс уже никак не назовешь надежным убежищем, каким он был раньше. Гарри подозревает, что в самом замке затаилась некая опасность, но Дамблдор больше сосредоточен на том, чтобы подготовить его к финальной схватке, которая, как он знает, уже не за горами. Вместе они пытаются разгадать секрет бессмертия Волан-де-Морта, а для этого Дамблдор приглашает на должность преподавателя по зельеварению своего старинного друга и коллегу — профессора Горация Слизнорта, который обожает устраивать вечеринки для избранных и гордится своими обширными связями в высших кругах. Но этот бонвиван и не подозревает, что как раз от него Дамблдор надеется заполучить самую важную информацию о крестражах.
Качество: BDRip
Исходник: BDRip 720p
Формат: m4v
Видео кодек: H.264
Аудио кодек: AAC
Видео: 1280x534, 3175 Kbps, 23,976 fps
Аудио RUS: 48 kHz, AAC, 2ch, 177 kbps - Профессиональный (полное дублирование)
Аудио ENG: 48 kHz, AAC, 2ch, 186 kbps - Оригинал
MediaInfo
Код:
Код:
Полное имя : D:\Harry Potter and the Half-Blood Prince.m4v
Формат : MPEG-4
Идентификатор кодека : M4V
Размер файла : 3,80 Гбайт
Продолжительность : 2 ч. 33 м.
Общий поток : 3545 Кбит/сек
Название фильма : Гарри Поттер и Принц-полукровка
Исполнитель : David Yates
Жанр : Kids & Family
Дата записи : UTC 2009-07-16 07:00:00
Дата кодирования : UTC 2011-12-05 17:27:46
Дата пометки : UTC 2011-12-06 17:35:59
Обложка : Yes
desc : Теперь не только мир волшебников, но и мир маглов ощущает на себе все возрастающую силу Волан-де-Морта, а Хогвартс уже никак не назовешь надежным убежищем, каким он был раньше.
ldes : Теперь не только мир волшебников, но и мир маглов ощущает на себе все возрастающую силу Волан-де-Морта, а Хогвартс уже никак не назовешь надежным убежищем, каким он был раньше.
hdvd : 1
stik : 0
cnID : 326568786
xid : iPad:vendor_id:2009-89515
iTunEXTC : mpaa|PG-13|300|
iTunMOVI : / / / / cast / / / name / Дэниэл Рэдклифф / / / name / Руперт Гринт / / / name / Эмма Уотсон / / / name / Хелена Бонем Картер / / / name / Дэвид Тьюлис / / / name / Джим Броудбент / / / name / Эларика Галлахер / / / name / Робби Колтрейн / / / name / Майкл Гэмбон / / / name / Мэгги Смит / / / name / Алан Рикман / / / name / Бонни Райт / / / directors / / / name / Дэвид Йэтс / / / producers / / / name / Дэвид Баррон / / / name / Дэвид Хейман / / / name / Тим Льюис / / / screenwriters / / / name / Стивен Кловз / / / name / Дж.К. Роулинг / / / /
Видео
Идентификатор : 1
Формат : AVC
Формат/Информация : Advanced Video Codec
Профиль формата : [email protected]
Параметр CABAC формата : Да
Параметр ReFrames формата : 11 кадры
Идентификатор кодека : avc1
Идентификатор кодека/Информация : Advanced Video Coding
Продолжительность : 2 ч. 33 м.
Вид битрейта : Переменный
Битрейт : 3175 Кбит/сек
Максимальный битрейт : 19,7 Мбит/сек
Ширина : 1280 пикс.
Высота : 534 пикс.
Соотношение сторон : 2,35:1
Режим частоты кадров : Постоянный
Частота кадров : 23,976 кадр/сек
Цветовое пространство : YUV
Подвыборка цветности : 4:2:0
Битовая глубина : 8 бит
Тип развёртки : Прогрессивная
Бит/(Пиксели*Кадры) : 0.194
Размер потока : 3,41 Гбайт (90%)
Заголовок : Harry Potter and the Half-Blood Prince
Библиотека кодирования : x264 core 94 r1583 7608d73
Настройки программы : cabac=1 / ref=11 / deblock=1:-2:-2 / analyse=0x3:0x133 / me=umh / subme=9 / psy=1 / psy_rd=1.15:0.00 / mixed_ref=1 / me_range=64 / chroma_me=1 / trellis=2 / 8x8dct=1 / cqm=0 / deadzone=21,11 / fast_pskip=0 / chroma_qp_offset=-2 / threads=9 / sliced_threads=0 / nr=0 / decimate=1 / interlaced=0 / constrained_intra=0 / bframes=16 / b_pyramid=2 / b_adapt=2 / b_bias=0 / direct=3 / weightb=1 / weightp=2 / keyint=250 / keyint_min=25 / scenecut=40 / intra_refresh=0 / rc_lookahead=60 / rc=crf / mbtree=0 / crf=17.5 / qcomp=0.60 / qpmin=10 / qpmax=51 / qpstep=4 / vbv_maxrate=50000 / vbv_bufsize=50000 / crf-max=0.0 / ip_ratio=1.40 / pb_ratio=1.30 / aq=1:1.10 / nal_hrd=none
Язык : English
Дата кодирования : UTC 2011-12-05 17:27:46
Дата пометки : UTC 2011-12-05 17:31:31
Аудио #1
Идентификатор : 2
Формат : AAC
Формат/Информация : Advanced Audio Codec
Профиль формата : LC
Идентификатор кодека : 40
Продолжительность : 2 ч. 33 м.
Вид битрейта : Переменный
Битрейт : 177 Кбит/сек
Максимальный битрейт : 253 Кбит/сек
Канал(ы) : 2 канала(ов)
Расположение каналов : Front: L R
Частота : 48,0 КГц
Метод сжатия : С потерями
Размер потока : 194 Мбайт (5%)
Заголовок : Russian stereo
Язык : Russian
Дата кодирования : UTC 2011-12-05 17:31:02
Дата пометки : UTC 2011-12-05 17:31:31
Аудио #2
Идентификатор : 3
Формат : AAC
Формат/Информация : Advanced Audio Codec
Профиль формата : LC
Идентификатор кодека : 40
Продолжительность : 2 ч. 33 м.
Вид битрейта : Переменный
Битрейт : 186 Кбит/сек
Максимальный битрейт : 243 Кбит/сек
Канал(ы) : 2 канала(ов)
Расположение каналов : Front: L R
Частота : 48,0 КГц
Метод сжатия : С потерями
Размер потока : 204 Мбайт (5%)
Заголовок : English stereo
Язык : English
Дата кодирования : UTC 2011-12-05 17:31:15
Дата пометки : UTC 2011-12-05 17:31:31
Текст #1
Идентификатор : 4
Формат : Timed text
Режим смешивания : sbtl
Идентификатор кодека : tx3g
Продолжительность : 1 ч. 40 м.
Вид битрейта : Переменный
Битрейт : 1 бит/сек
Размер потока : 992 байт (0%)
Заголовок : Forced
Язык : Russian
Дата кодирования : UTC 2011-12-05 17:31:29
Дата пометки : UTC 2011-12-05 17:31:31
Текст #2
Идентификатор : 5
Формат : Timed text
Режим смешивания : sbtl
Идентификатор кодека : tx3g
Продолжительность : 2 ч. 26 м.
Вид битрейта : Переменный
Битрейт : 84 бит/сек
Размер потока : 89,8 Кбайт (0%)
Заголовок : Full
Язык : Russian
Дата кодирования : UTC 2011-12-05 17:31:29
Дата пометки : UTC 2011-12-05 17:31:31
Текст #3
Идентификатор : 6
Формат : Timed text
Режим смешивания : sbtl
Идентификатор кодека : tx3g
Продолжительность : 2 ч. 23 м.
Вид битрейта : Переменный
Битрейт : 53 бит/сек
Размер потока : 55,5 Кбайт (0%)
Заголовок : Original
Язык : English
Дата кодирования : UTC 2011-12-05 17:31:30
Дата пометки : UTC 2011-12-05 17:31:31
Текст #4
Идентификатор : 7
Формат : Apple text
Идентификатор кодека : text
Продолжительность : 2 ч. 33 м.
Вид битрейта : Переменный
Битрейт : 1 бит/сек
Размер потока : 966 байт (0%)
Дата кодирования : UTC 2011-12-06 17:35:32
Дата пометки : UTC 2011-12-06 17:35:32

Log
Код:
Код:
---[NoImage] x264 [info]: frame I:1595 Avg QP:13.22 size: 78074 PSNR Mean Y:49.65 U:52.82 V:53.72 Avg:50.52 Global:50.07
---[NoImage] x264 [info]: frame P:40383 Avg QP:14.30 size: 33650 PSNR Mean Y:48.66 U:51.86 V:52.98 Avg:49.42 Global:48.35
---[NoImage] x264 [info]: frame B:178863 Avg QP:15.87 size: 12147 PSNR Mean Y:46.91 U:51.06 V:52.23 Avg:47.93 Global:47.28
---[NoImage] x264 [info]: consecutive B-frames: 1.0% 1.0% 2.2% 9.8% 13.1% 48.3% 10.5% 6.5% 2.3% 2.3% 0.8% 1.6% 0.3% 0.3% 0.0% 0.1% 0.0%
---[NoImage] x264 [info]: mb I I16..4: 10.5% 76.0% 13.5%
---[NoImage] x264 [info]: mb P I16..4: 2.5% 10.7% 1.0% P16..4: 39.7% 29.4% 7.3% 0.3% 0.4% skip: 8.8%
---[NoImage] x264 [info]: mb B I16..4: 0.1% 1.0% 0.1% B16..8: 36.4% 12.7% 3.2% direct: 7.7% skip:38.9% L0:45.0% L1:45.6% BI: 9.4%
---[NoImage] x264 [info]: 8x8 transform intra:77.6% inter:50.2%
---[NoImage] x264 [info]: direct mvs spatial:100.0% temporal:0.0%
---[NoImage] x264 [info]: coded y,uvDC,uvAC intra: 81.2% 77.0% 59.4% inter: 25.3% 20.3% 2.8%
---[NoImage] x264 [info]: i16 v,h,dc,p: 73% 9% 6% 12%
---[NoImage] x264 [info]: i8 v,h,dc,ddl,ddr,vr,hd,vl,hu: 13% 8% 12% 9% 12% 12% 12% 11% 12%
---[NoImage] x264 [info]: i4 v,h,dc,ddl,ddr,vr,hd,vl,hu: 16% 6% 7% 10% 14% 13% 12% 11% 12%
---[NoImage] x264 [info]: i8c dc,h,v,p: 42% 29% 19% 10%
---[NoImage] x264 [info]: Weighted P-Frames: Y:2.8%
---[NoImage] x264 [info]: ref P L0: 43.1% 7.0% 18.4% 7.7% 6.2% 4.8% 4.1% 2.4% 2.2% 2.0% 1.8% 0.2% 0.0%
---[NoImage] x264 [info]: ref B L0: 68.4% 13.4% 6.7% 3.4% 2.5% 2.1% 1.7% 1.0% 0.6% 0.3%
---[NoImage] x264 [info]: ref B L1: 90.9% 9.1%
---[NoImage] x264 [info]: SSIM Mean Y:0.9863086
---[NoImage] x264 [info]: PSNR Mean Y:47.251 U:51.217 V:52.379 Avg:48.221 Global:47.474 kb/s:3175.47

Скриншоты
Для просмотра данного релиза на компьютере с ОС Windows рекомендуется использовать VLC media player



Вернуться к началу
 Профиль Отправить личное сообщение  
 
   Похожие торренты   Автор   Торрент   Размер 
В этой теме нет новых непрочитанных сообщений. Гарри Поттер и Принц-полукровка / Harry Potter and the Half-Blood Prince [Фэнтези, мелодрама, приключения, 2009] BDRemux 2160p, Dub [4K]

salma3

6 | 20

63.93 ГБ

В этой теме нет новых непрочитанных сообщений. Гарри Поттер и философский камень / Harry Potter and the Sorcerer's Stone [Фэнтези, Приключения, Семейный, 2001] BDRip-HEVC 2160p, Dub

salma3

17 | 1

7.3 ГБ

В этой теме нет новых непрочитанных сообщений. Гарри Поттер и философский камень / Harry Potter and the Sorcerer's Stone [фэнтези, приключения, семейный, 2001] WEB-DL 1080p, Dub [Open Matte]

salma3

23 | 7

22.78 ГБ

В этой теме нет новых непрочитанных сообщений. Гарри Поттер и Дары смерти: Часть II / Harry Potter and the Deathly Hallows: Part 2 [Фэнтези, приключения, экранизация, 2011] BDRemux 2160p, Dub [4K]

salma3

5 | 18

50.08 ГБ

В этой теме нет новых непрочитанных сообщений. Хроники Нарнии: Принц Каспиан / The Chronicles of Narnia: Prince Caspian [фэнтези, боевик, приключения, 2008] BDRip 720p, Dub+Sub

salma3

58 | 16

4.37 ГБ

В этой теме нет новых непрочитанных сообщений. Большой и добрый великан / The BFG [фэнтези, приключения, семейный, 2016] BDRip 720p, Dub [iPad] [Лицензия]

salma3

0 | 0

2.26 ГБ

В этой теме нет новых непрочитанных сообщений. Принц Египта / The Prince of Egypt [мультфильм, приключения, семейный, история, 1998] WEBRip 1080p, 2Dub+Mvo+2Dvo+2Avo

salma3

57 | 6

7.4 ГБ


Начать новую тему Ответить на тему  [ 1 сообщение ] 




Для Мосгорсуда, Роскомнадзора и рекламодателей:: mosgorsud-torrent[собачка]yandex.ru
cron