Торрент файл
скачать торрент магнет ссылка Добавлен: 12 янв 2013, 23:45
Размер: 2.35 ГБ
Сидеров: 1
Личеров: 3
Автор

СообщениеДобавлено: 12 янв 2013, 23:45 

Не в сети
Супермодератор
Аватара пользователя
Дата регистрации:
11 апр 2010, 18:10
Спасибо: 5995 / 7
Сообщения: 56685
id="p-25224744-1">
Небесный капитан и мир будущего / Sky Captain and the World of Tomorrow«The Battle for Tomorrow is About to Begin...»


Страна: США, Великобритания, Италия
Жанр: фантастика, боевик, триллер, детектив, приключения
Год выпуска: 2004
Продолжительность: 01:46:38

Перевод: Профессиональный (полное дублирование)
Оригинальная аудиодорожка: Английский
Cубтитры: Русские, Английские
Режиссер: Керри Конран / Kerry Conran

В ролях: Гвинет Пэлтроу (Polly Perkins), Джуд Лоу (Sky Captain), Джованни Рибизи (Dex), Майкл Гэмбон (Editor Paley), Бай Лин (Mysterious Woman), Омид Джалили (Kaji), Лоуренс Оливье (Dr. Totenkopf, хроника), Анджелина Джоли (Franky), Тревор Бэкстер (Dr. Jennings), Джулиан Карри (Dr. Vargas), Питер Лоу (Dr. Kessler), Джон Рамни (German Scientist)
Дублёры: Любовь Германова (Polly Perkins), Александр Рахленко (Sky Captain), Андрей Бархударов (Dex), Дальвин Щербаков (Editor Paley), Андрей Ярославцев (Kaji), Наталья Казначеева (Franky), Рудольф Панков (Dr. Jennings)

Описание: Действие разворачивается в Нью-Йорке 1939 года. Молодая журналистка узнает о том, что всемирно известные ученые пропадают при невыясненных обстоятельствах. Объединившись с опытным пилотом и искателем приключений, она пытается нарушить планы сумасшедшего, стремящегося завладеть миром…
Рейтинг
imdb.com: 6.20 (47 385)
MPAA: PG - Рекомендуется присутствие родителей
Качество видео: BDRip - Исходник BD Remux
Формат видео: m4v
Видео кодек: H.264
Аудио кодек: AAC
Видео: 1280х720 (19:9), 23,976 fps, H.264 2790 kbps avg, 0.126 bit/pixel
Аудио #1: Russian, 48,0 kHz, AAC LC, 2 ch, 174 kbps avg | DUB
Аудио #2: English, 48,0 kHz, AAC LC, 2 ch, 188 kbps avg | Original
MediaInfo
Код:
Код:
General
Complete name                            : D:\iPad.2\Sky Captain and the World of Tomorrow\Sky.Captain.2004.BDRip.m4v
Format                                   : MPEG-4
Codec ID                                 : M4V
File size                                : 2.35 GiB
Duration                                 : 1h 46mn
Overall bit rate mode                    : Variable
Overall bit rate                         : 3 158 Kbps
Movie name                               : Небесный капитан и мир будущего
Performer                                : Керри Конран
Genre                                    : фантастика, боевик, триллер
Recorded date                            : UTC 2004-09-14 07:00:00
Encoded date                             : UTC 2011-12-16 18:28:26
Tagged date                              : UTC 2011-12-17 18:48:53
Writing application                      : MkvToMp4 [www.mkvtomp4.ru] version 0.218Test3
Cover                                    : Yes
desc                                     : Действие разворачивается в Нью-Йорке 1939 года. Молодая журналистка узнает о том, что всемирно известные ученые пропадают при невыясненных обстоятельствах. Объединившись с опытным пилотом и искателем приключений, она пытается нарушить планы сумасшедш
ldes                                     : Действие разворачивается в Нью-Йорке 1939 года. Молодая журналистка узнает о том, что всемирно известные ученые пропадают при невыясненных обстоятельствах. Объединившись с опытным пилотом и искателем приключений, она пытается нарушить планы сумасшедшего, стремящегося завладеть миром…
hdvd                                     : 1
stik                                     : 9
cnID                                     : 417609238
xid                                      : iPad:vendor_id:2004-13625
iTunEXTC                                 : mpaa|PG|200|
iTunMOVI                                 : <?xml version="1.0" encoding="UTF-8"?> / <!DOCTYPE plist PUBLIC "-/Apple/DTD PLIST 1.0/EN" "http:/www.apple.com/DTDs/PropertyList-1.0.dtd"> / <plist version="1.0"> /  <dict> /   <key>cast</key> /   <array> /    <dict> /     <key>name</key> /     <string>Анджелина Джоли</string> /    </dict> /    <dict> /     <key>name</key> /     <string>Гвинет Пэлтроу</string> /    </dict> /    <dict> /     <key>name</key> /     <string>Джуд Лоу</string> /    </dict> /    <dict> /     <key>name</key> /     <string>Джованни Рибизи</string> /    </dict> /    <dict> /     <key>name</key> /     <string>Майкл Гэмбон</string> /    </dict> /    <dict> /     <key>name</key> /     <string>Линь Бай</string> /    </dict> /    <dict> /     <key>name</key> /     <string>Омид Джалили</string> /    </dict> /    <dict> /     <key>name</key> /     <string>Лоуренс Оливье</string> /    </dict> /    <dict> /     <key>name</key> /     <string>Тревор Бакстер</string> /    </dict> /    <dict> /     <key>name</key> /     <string>Джулиан Керри</string> /    </dict> /    <dict> /     <key>name</key> /     <string>Питер Ло</string> /    </dict> /    <dict> /     <key>name</key> /     <string>Джон Рамни</string> /    </dict> /    <dict> /     <key>name</key> /     <string>Хан Бонфилс</string> /    </dict> /   </array> /   <key>directors</key> /   <array> /    <dict> /     <key>name</key> /     <string>Керри Конран</string> /    </dict> /   </array> /   <key>producers</key> /   <array> /    <dict> /     <key>name</key> /     <string>Джон Эвнет</string> /    </dict> /    <dict> /     <key>name</key> /     <string>Марша Оглсби</string> /    </dict> /    <dict> /     <key>name</key> /     <string>Сэди Фрост</string> /    </dict> /   </array> /   <key>screenwriters</key> /   <array> /    <dict> /     <key>name</key> /     <string>Керри Конран</string> /    </dict> /   </array> /  </dict> / </plist>
Video
ID                                       : 1
Format                                   : AVC
Format/Info                              : Advanced Video Codec
Format profile                           : [email protected]
Format settings, CABAC                   : Yes
Format settings, ReFrames                : 9 frames
Codec ID                                 : avc1
Codec ID/Info                            : Advanced Video Coding
Duration                                 : 1h 46mn
Bit rate                                 : 2 790 Kbps
Maximum bit rate                         : 14.6 Mbps
Width                                    : 1 280 pixels
Height                                   : 720 pixels
Display aspect ratio                     : 16:9
Frame rate mode                          : Variable
Frame rate                               : 23.976 fps
Minimum frame rate                       : 23.810 fps
Maximum frame rate                       : 24.390 fps
Color space                              : YUV
Chroma subsampling                       : 4:2:0
Bit depth                                : 8 bits
Scan type                                : Progressive
Bits/(Pixel*Frame)                       : 0.126
Stream size                              : 2.08 GiB (88%)
Writing library                          : x264 core 112
Encoding settings                        : cabac=1 / ref=9 / deblock=1:0:0 / analyse=0x3:0x113 / me=umh / subme=9 / psy=1 / psy_rd=1.00:0.00 / mixed_ref=1 / me_range=24 / chroma_me=1 / trellis=1 / 8x8dct=1 / cqm=0 / deadzone=21,11 / fast_pskip=1 / chroma_qp_offset=-2 / threads=12 / sliced_threads=0 / nr=0 / decimate=1 / interlaced=0 / constrained_intra=0 / bframes=6 / b_pyramid=2 / b_adapt=1 / b_bias=0 / direct=1 / weightb=1 / open_gop=0 / weightp=2 / keyint=240 / keyint_min=23 / scenecut=40 / intra_refresh=0 / rc_lookahead=40 / rc=crf / mbtree=1 / crf=18.5 / qcomp=0.60 / qpmin=3 / qpmax=51 / qpstep=4 / ip_ratio=1.40 / aq=1:1.00
Language                                 : English
Encoded date                             : UTC 2011-12-16 18:28:26
Tagged date                              : UTC 2011-12-16 18:36:27
Color primaries                          : BT.709-5, BT.1361, IEC 61966-2-4, SMPTE RP177
Transfer characteristics                 : BT.709-5, BT.1361
Matrix coefficients                      : BT.709-5, BT.1361, IEC 61966-2-4 709, SMPTE RP177
Audio #1
ID                                       : 2
Format                                   : AAC
Format/Info                              : Advanced Audio Codec
Format profile                           : LC
Codec ID                                 : 40
Duration                                 : 1h 46mn
Bit rate mode                            : Variable
Bit rate                                 : 174 Kbps
Maximum bit rate                         : 234 Kbps
Channel(s)                               : 2 channels
Channel positions                        : Front: L R
Sampling rate                            : 48.0 KHz
Compression mode                         : Lossy
Stream size                              : 133 MiB (6%)
Title                                    : DUB
Language                                 : Russian
Encoded date                             : UTC 2011-12-16 18:29:19
Tagged date                              : UTC 2011-12-16 18:36:27
Audio #2
ID                                       : 3
Format                                   : AAC
Format/Info                              : Advanced Audio Codec
Format profile                           : LC
Codec ID                                 : 40
Duration                                 : 1h 46mn
Bit rate mode                            : Variable
Bit rate                                 : 188 Kbps
Maximum bit rate                         : 238 Kbps
Channel(s)                               : 2 channels
Channel positions                        : Front: L R
Sampling rate                            : 48.0 KHz
Compression mode                         : Lossy
Stream size                              : 143 MiB (6%)
Title                                    : Original
Language                                 : English
Encoded date                             : UTC 2011-12-16 18:33:24
Tagged date                              : UTC 2011-12-16 18:36:27
Text #1
ID                                       : 4
Format                                   : Timed text
Muxing mode                              : sbtl
Codec ID                                 : tx3g
Duration                                 : 1h 35mn
Bit rate mode                            : Variable
Bit rate                                 : 71 bps
Stream size                              : 49.8 KiB (0%)
Language                                 : Russian
Encoded date                             : UTC 2011-12-16 18:36:26
Tagged date                              : UTC 2011-12-16 18:36:27
Text #2
ID                                       : 5
Format                                   : Timed text
Muxing mode                              : sbtl
Codec ID                                 : tx3g
Duration                                 : 1h 35mn
Bit rate mode                            : Variable
Bit rate                                 : 47 bps
Stream size                              : 32.8 KiB (0%)
Language                                 : English
Encoded date                             : UTC 2011-12-16 18:36:26
Tagged date                              : UTC 2011-12-16 18:36:27

x264 log
Код:
Код:
x264 [info]: frame I:2471  Avg QP:15.56  size: 68184  PSNR Mean Y:48.30 U:55.50 V:55.26 Avg:49.56 Global:49.14
x264 [info]: frame P:80774 Avg QP:18.84  size: 20228  PSNR Mean Y:46.10 U:54.44 V:54.23 Avg:47.43 Global:47.01
x264 [info]: frame B:70115 Avg QP:20.98  size:  6114  PSNR Mean Y:45.69 U:58.88 V:58.78 Avg:47.05 Global:46.33
x264 [info]: consecutive B-frames: 28.9% 29.6%  8.7% 12.5% 14.2%  5.3%  0.9%
x264 [info]: mb I  I16..4: 14.5% 73.2% 12.3%
x264 [info]: mb P  I16..4:  1.6%  5.7%  0.7%  P16..4: 46.1% 18.5% 10.4%  0.0%  0.0%    skip:17.0%
x264 [info]: mb B  I16..4:  0.1%  0.3%  0.1%  B16..8: 41.3%  4.6%  0.8%  direct: 2.0%  skip:51.0%  L0:43.8% L1:52.8% BI: 3.4%
x264 [info]: 8x8 transform intra:72.0% inter:77.7%
x264 [info]: coded y,uvDC,uvAC intra: 77.2% 55.0% 18.5% inter: 24.6% 17.3% 0.1%
x264 [info]: i16 v,h,dc,p: 30% 16% 10% 44%
x264 [info]: i8 v,h,dc,ddl,ddr,vr,hd,vl,hu:  6%  6%  3% 11% 18% 15% 16% 12% 13%
x264 [info]: i4 v,h,dc,ddl,ddr,vr,hd,vl,hu:  6%  9%  3% 10% 16% 14% 16% 11% 14%
x264 [info]: i8c dc,h,v,p: 45% 25% 17% 14%
x264 [info]: Weighted P-Frames: Y:9.3% UV:6.1%
x264 [info]: ref P L0: 52.6%  9.8% 15.7%  6.2%  4.6%  3.5%  3.0%  1.7%  1.6%  1.0%  0.1%
x264 [info]: ref B L0: 70.5% 14.8%  6.3%  2.9%  2.1%  1.8%  1.4%  0.2%
x264 [info]: ref B L1: 92.5%  7.5%
x264 [info]: SSIM Mean Y:0.9809274 (17.196db)
x264 [info]: PSNR Mean Y:45.949 U:56.487 V:56.327 Avg:47.290 Global:46.712 kb/s:2790.34

Скриншоты

Скриншоты с iPad




Вернуться к началу
 Профиль Отправить личное сообщение  
 
   Похожие торренты   Автор   Торрент   Размер 
В этой теме нет новых непрочитанных сообщений. Небесный капитан и мир будущего / Sky Captain and the World of Tomorrow [фантастика, боевик, триллер, 2004] BDRip 720p, Dub+Sub

salma3

40 | 12

3.99 ГБ

В этой теме нет новых непрочитанных сообщений. Капитан Подштанник: Первый эпический фильм / Captain Underpants: The First Epic Movie [мультфильм, боевик, комедия, семейный, 2017] BDRip 720p, Mvo [Лицензия]

salma3

0 | 0

4.38 ГБ

В этой теме нет новых непрочитанных сообщений. Человек из будущего / The Tomorrow Man [фантастика, боевик, 2002] DVDRip, Mvo

salma3

19 | 4

1.45 ГБ

В этой теме нет новых непрочитанных сообщений. Грань будущего / Edge of Tomorrow [Фантастика, боевик, 2014] BDRemux 1080p, Dvo+Sub

salma3

0 | 0

45.92 ГБ

В этой теме нет новых непрочитанных сообщений. Преступник / Criminal [фантастика, боевик, триллер, 2016] BDRip 720p, Dub [iPad] [Лицензия]

salma3

0 | 0

2.37 ГБ

В этой теме нет новых непрочитанных сообщений. Первый мститель: Противостояние / Captain America: Civil War [фантастика, боевик, триллер, приключения, 2016] BDRip 720p, Dub [iTunes]

marya111

2 | 4

6.05 ГБ

В этой теме нет новых непрочитанных сообщений. Капитан Подштанник: Первый эпический фильм / Captain Underpants: The First Epic Movie [мультфильм, боевик, комедия, семейный, 2017] BDRip, Mvo [Лицензия]

salma3

0 | 0

1.46 ГБ


Начать новую тему Ответить на тему  [ 1 сообщение ] 




Для Мосгорсуда, Роскомнадзора и рекламодателей:: mosgorsud-torrent[собачка]yandex.ru
cron