Торрент файл
скачать торрент магнет ссылка Добавлен: 12 янв 2013, 23:45
Размер: 2.89 ГБ
Сидеров: 5
Личеров: 4
Автор

СообщениеДобавлено: 12 янв 2013, 23:45 

Не в сети
Супермодератор
Аватара пользователя
Дата регистрации:
11 апр 2010, 18:10
Спасибо: 5995 / 7
Сообщения: 56685
id="p-25224744-1">
Джуманджи / Jumanji«Эта игра заставит Вас поверить в чудеса»


Страна: США
Жанр: фэнтези, триллер, приключения, семейный
Год выпуска: 1995

Перевод #1: Профессиональный (полное дублирование)
Перевод #2: Профессиональный (многоголосый, закадровый)
Оригинальная аудиодорожка: Английский
Cубтитры: Русские, Английские
Режиссер: Джо Джонстон / Joe Johnston

В ролях: Робин Уильямс (Alan Parrish,), Джонатан Хайд (Samuel Alan Parrish, Hunter Van Pelt), Кирстен Данст (Judy Shepherd), Брэдли Пирс (Peter Shepherd), Бонни Хант (Sarah Whittle), Биби Нойуэрт (Aunt Nora Shepherd), Дэвид Алан Грир (Carl Bentley), Патришия Кларксон (Carol Anne Parrish), Адам Хэнн-Берд (Alan Parrish, 1969), Лаура Белл Банди (Sarah Whittle, 1969), Джеймс Хэнди (Exterminator), Джиллиан Барбер (Mrs. Thomas the Realtor)
Дублёры: Вадим Андреев (Alan Parrish), Сергей Малишевский (Samuel Alan Parrish, Hunter Van Pelt), Михаил Тихонов (Peter Shepherd), Марина Дюжева (Sarah Whittle), Александр Рахленко (Carl Bentley), Андрей Гриневич, Игорь Тарадайкин, Людмила Шувалова (Sarah Whittle, 1969), Ольга Голованова, Владимир Герасимов (Exterminator), Андрей Градов (Jim Shepherd), Елена Соловьева (Mrs. Thomas the Realtor)

Описание: Случайно обнаружив настольную игру со странным названием «Джуманджи» Алан Пэрриш, не зная о ее сверхъестественных свойствах, на глазах изумленной подружки переносится в джунгли.
Долгие годы он находится в потустороннем мире, до тех пор, пока двое ни о чем не подозревающих подростков не находят игру и не снимают волшебные чары, освобождая Алана из многолетнего плена.
Теперь им предстоит решить нелегкую задачу - победить могущественную силу игры, пройти немыслимые препятствия и одержать победу над силами Магии!
Рейтинг
imdb.com: 6.50 (74 981)
MPAA: PG - Рекомендуется присутствие родителей
Качество видео: BDRip - Исходник BD Remux
Формат видео: m4v
Видео кодек: H.264
Аудио кодек: AAC
Видео: 1280х688 (1.86:1), 23,976 fps, H.264 3500 kbps avg, 0.166 bit/pixel
Аудио #1: Russian, 48,0 kHz, AAC LC, 2 ch, 144 kbps avg | DUB
Аудио #2: Russian, 48,0 kHz, AAC LC, 2 ch, 144 kbps avg | MVO
Аудио #3: English, 48,0 kHz, AAC LC, 2 ch, 169 kbps avg | Original
MediaInfo
Код:
Код:
General
Complete name                            : D:\NEW\Jumanji\Dzhumandzhi.1995.BDRip.m4v
Format                                   : MPEG-4
Codec ID                                 : M4V
File size                                : 2.89 GiB
Duration                                 : 1h 44mn
Overall bit rate mode                    : Variable
Overall bit rate                         : 3 970 Kbps
Movie name                               : Джуманджи
Performer                                : Джо Джонстон
Genre                                    : фэнтези, триллер, приключения
Recorded date                            : UTC 1995-12-15 07:00:00
Encoded date                             : UTC 2012-01-03 15:31:34
Tagged date                              : UTC 2012-01-04 15:37:13
Writing application                      : MkvToMp4 [www.mkvtomp4.ru] version 0.218Test3
Cover                                    : Yes
desc                                     : Случайно обнаружив настольную игру со странным названием «Джуманджи» Алан Пэрриш, не зная о ее сверхъестественных свойствах, на глазах изумленной подружки переносится в джунгли.
ldes                                     : Случайно обнаружив настольную игру со странным названием «Джуманджи» Алан Пэрриш, не зная о ее сверхъестественных свойствах, на глазах изумленной подружки переносится в джунгли. Долгие годы он находится в потустороннем мире, до тех пор, пока двое ни о чем не подозревающих подростков не находят игру и не снимают волшебные чары, освобождая Алана из многолетнего плена.  Теперь им предстоит решить нелегкую задачу — победить могущественную силу игры, пройти немыслимые препятствия и одержать победу над силами Магии!
hdvd                                     : 1
stik                                     : 9
cnID                                     : 331078401
xid                                      : iPad:vendor_id:1995-8161
iTunEXTC                                 : mpaa|PG|200|
iTunMOVI                                 : <?xml version="1.0" encoding="UTF-8"?> / <!DOCTYPE plist PUBLIC "-/Apple/DTD PLIST 1.0/EN" "http:/www.apple.com/DTDs/PropertyList-1.0.dtd"> / <plist version="1.0"> /  <dict> /   <key>cast</key> /   <array> /    <dict> /     <key>name</key> /     <string>Робин Уильямс</string> /    </dict> /    <dict> /     <key>name</key> /     <string>Джонатан Хайд</string> /    </dict> /    <dict> /     <key>name</key> /     <string>Кирстен Данст</string> /    </dict> /    <dict> /     <key>name</key> /     <string>Брэдли Пирс</string> /    </dict> /    <dict> /     <key>name</key> /     <string>Бонни Хант</string> /    </dict> /    <dict> /     <key>name</key> /     <string>Биби Нойуэрт</string> /    </dict> /    <dict> /     <key>name</key> /     <string>Дэвид Алан Грайр</string> /    </dict> /    <dict> /     <key>name</key> /     <string>Патришия Кларксон</string> /    </dict> /    <dict> /     <key>name</key> /     <string>Адам Хэнн-Берд</string> /    </dict> /    <dict> /     <key>name</key> /     <string>Лаура Белл Банди</string> /    </dict> /   </array> /   <key>directors</key> /   <array> /    <dict> /     <key>name</key> /     <string>Джо Джонстон</string> /    </dict> /   </array> /   <key>producers</key> /   <array> /    <dict> /     <key>name</key> /     <string>Роберт В. Корт</string> /    </dict> /    <dict> /     <key>name</key> /     <string>Тед Филд</string> /    </dict> /    <dict> /     <key>name</key> /     <string>Ларри Дж. Франко</string> /    </dict> /   </array> /   <key>screenwriters</key> /   <array> /    <dict> /     <key>name</key> /     <string>Крис Ван Оллсбёрг</string> /    </dict> /    <dict> /     <key>name</key> /     <string>Грег Тейлор</string> /    </dict> /    <dict> /     <key>name</key> /     <string>Джим Стрэйн</string> /    </dict> /   </array> /  </dict> / </plist>
Video
ID                                       : 1
Format                                   : AVC
Format/Info                              : Advanced Video Codec
Format profile                           : [email protected]
Format settings, CABAC                   : Yes
Format settings, ReFrames                : 9 frames
Codec ID                                 : avc1
Codec ID/Info                            : Advanced Video Coding
Duration                                 : 1h 44mn
Bit rate                                 : 3 500 Kbps
Maximum bit rate                         : 17.0 Mbps
Width                                    : 1 280 pixels
Height                                   : 688 pixels
Display aspect ratio                     : 1.860
Frame rate mode                          : Constant
Frame rate                               : 23.976 fps
Color space                              : YUV
Chroma subsampling                       : 4:2:0
Bit depth                                : 8 bits
Scan type                                : Progressive
Bits/(Pixel*Frame)                       : 0.166
Stream size                              : 2.54 GiB (88%)
Writing library                          : x264 core 119 r2106 07efeb4
Encoding settings                        : cabac=1 / ref=9 / deblock=1:0:0 / analyse=0x3:0x131 / me=umh / subme=9 / psy=1 / psy_rd=1.00:0.00 / mixed_ref=1 / me_range=24 / chroma_me=1 / trellis=1 / 8x8dct=1 / cqm=0 / deadzone=21,11 / fast_pskip=1 / chroma_qp_offset=-2 / threads=12 / sliced_threads=0 / nr=0 / decimate=1 / interlaced=0 / bluray_compat=0 / constrained_intra=0 / bframes=6 / b_pyramid=2 / b_adapt=1 / b_bias=0 / direct=3 / weightb=1 / open_gop=0 / weightp=2 / keyint=250 / keyint_min=23 / scenecut=40 / intra_refresh=0 / rc_lookahead=40 / rc=2pass / mbtree=1 / bitrate=3500 / ratetol=1.0 / qcomp=0.60 / qpmin=0 / qpmax=69 / qpstep=4 / cplxblur=20.0 / qblur=0.5 / ip_ratio=1.40 / aq=1:1.00
Language                                 : English
Encoded date                             : UTC 2012-01-03 15:31:34
Tagged date                              : UTC 2012-01-03 15:33:05
Material_Duration                        : 6246282
Material_Duration_LastFrame              : 42
Material_StreamSize                      : 2731443828
Material_FrameCount                      : 149760
Audio #1
ID                                       : 2
Format                                   : AAC
Format/Info                              : Advanced Audio Codec
Format profile                           : LC
Codec ID                                 : 40
Duration                                 : 1h 44mn
Bit rate mode                            : Variable
Bit rate                                 : 144 Kbps
Maximum bit rate                         : 229 Kbps
Channel(s)                               : 2 channels
Channel positions                        : Front: L R
Sampling rate                            : 48.0 KHz
Compression mode                         : Lossy
Stream size                              : 105 MiB (4%)
Title                                    : DUB
Language                                 : Russian
Encoded date                             : UTC 2012-01-03 15:32:07
Tagged date                              : UTC 2012-01-03 15:33:05
Audio #2
ID                                       : 3
Format                                   : AAC
Format/Info                              : Advanced Audio Codec
Format profile                           : LC
Codec ID                                 : 40
Duration                                 : 1h 44mn
Bit rate mode                            : Variable
Bit rate                                 : 144 Kbps
Maximum bit rate                         : 216 Kbps
Channel(s)                               : 2 channels
Channel positions                        : Front: L R
Sampling rate                            : 48.0 KHz
Compression mode                         : Lossy
Stream size                              : 109 MiB (4%)
Title                                    : MVO
Language                                 : Russian
Encoded date                             : UTC 2012-01-03 15:32:38
Tagged date                              : UTC 2012-01-03 15:33:05
Audio #3
ID                                       : 4
Format                                   : AAC
Format/Info                              : Advanced Audio Codec
Format profile                           : LC
Codec ID                                 : 40
Duration                                 : 1h 44mn
Bit rate mode                            : Variable
Bit rate                                 : 169 Kbps
Maximum bit rate                         : 238 Kbps
Channel(s)                               : 2 channels
Channel positions                        : Front: L R
Sampling rate                            : 48.0 KHz
Compression mode                         : Lossy
Stream size                              : 126 MiB (4%)
Title                                    : Original
Language                                 : English
Encoded date                             : UTC 2012-01-03 15:32:52
Tagged date                              : UTC 2012-01-03 15:33:05
Text #1
ID                                       : 5
Format                                   : Timed text
Muxing mode                              : sbtl
Codec ID                                 : tx3g
Duration                                 : 1h 38mn
Bit rate mode                            : Variable
Bit rate                                 : 51 bps
Stream size                              : 36.6 KiB (0%)
Language                                 : Russian
Encoded date                             : UTC 2012-01-03 15:33:05
Tagged date                              : UTC 2012-01-03 15:33:05
Text #2
ID                                       : 6
Format                                   : Timed text
Muxing mode                              : sbtl
Codec ID                                 : tx3g
Duration                                 : 1h 38mn
Bit rate mode                            : Variable
Bit rate                                 : 47 bps
Stream size                              : 33.7 KiB (0%)
Language                                 : English
Encoded date                             : UTC 2012-01-03 15:33:05
Tagged date                              : UTC 2012-01-03 15:33:05

x264 log
Код:
Код:
x264 [info]: frame I:2102  Avg QP:17.78  size: 84474
x264 [info]: frame P:85176 Avg QP:20.54  size: 23963
x264 [info]: frame B:62483 Avg QP:22.39  size:  8208
x264 [info]: consecutive B-frames: 28.3% 43.2% 15.9% 11.7%  0.9%  0.0%  0.0%
x264 [info]: mb I  I16..4:  6.4% 81.9% 11.7%
x264 [info]: mb P  I16..4:  1.5%  0.0%  2.5%  P16..4: 52.3% 15.6% 15.1%  0.4%  0.1%    skip:12.4%
x264 [info]: mb B  I16..4:  0.1%  0.0%  0.2%  B16..8: 49.8%  6.0%  1.3%  direct: 1.9%  skip:40.8%  L0:44.7% L1:51.4% BI: 3.9%
x264 [info]: 8x8 transform intra:30.7% inter:75.6%
x264 [info]: direct mvs  spatial:94.9% temporal:5.1%
x264 [info]: coded y,uvDC,uvAC intra: 86.5% 80.5% 48.7% inter: 32.0% 31.6% 1.6%
x264 [info]: i16 v,h,dc,p: 26% 22% 11% 42%
x264 [info]: i8 v,h,dc,ddl,ddr,vr,hd,vl,hu:  8%  7%  3% 12% 16% 15% 15% 12% 13%
x264 [info]: i4 v,h,dc,ddl,ddr,vr,hd,vl,hu:  4%  4%  2% 10% 18% 15% 17% 12% 16%
x264 [info]: i8c dc,h,v,p: 39% 24% 18% 19%
x264 [info]: Weighted P-Frames: Y:3.6% UV:0.6%
x264 [info]: ref P L0: 52.6% 11.6% 14.8%  5.8%  4.6%  3.5%  3.0%  1.6%  1.6%  0.9%  0.0%
x264 [info]: ref B L0: 68.8% 13.2%  7.1%  3.7%  2.7%  2.4%  1.9%  0.3%
x264 [info]: ref B L1: 95.1%  4.9%
x264 [info]: kb/s:3498.41

Скриншоты

Скриншоты с iPad




Вернуться к началу
 Профиль Отправить личное сообщение  
 
   Похожие торренты   Автор   Торрент   Размер 
В этой теме нет новых непрочитанных сообщений. Джуманджи / Jumanji [фэнтези, боевик, приключения, 1995] BDRip 720p, Dub [60 fps]

salma3

0 | 0

12.19 ГБ

В этой теме нет новых непрочитанных сообщений. Джуманджи / Jumanji [фэнтези, боевик, триллер, 1995] HDRip, Avo

salma3

0 | 0

1.46 ГБ

В этой теме нет новых непрочитанных сообщений. Джуманджи: Зов джунглей / Jumanji: Welcome to the Jungle [Фэнтези, боевик, комедия, 2017] BDRip 720p, Dub [Лицензия]

salma3

42 | 5

6.85 ГБ

В этой теме нет новых непрочитанных сообщений. Джуманджи: Зов джунглей / Jumanji: Welcome to the Jungle [Фэнтези, боевик, комедия, 2017] BDRip, Dub [Лицензия]

salma3

128 | 67

1.46 ГБ

В этой теме нет новых непрочитанных сообщений. Джуманджи: Зов джунглей / Jumanji: Welcome to the Jungle [Фэнтези, боевик, комедия, 2017] BDRip, Dub [Лицензия]

salma3

32 | 4

2.18 ГБ

В этой теме нет новых непрочитанных сообщений. Джуманджи: Зов джунглей / Jumanji: Welcome to the Jungle [Фэнтези, боевик, комедия, 2017] BDRip 1080p, Dub [Лицензия]

salma3

52 | 1

11.6 ГБ

В этой теме нет новых непрочитанных сообщений. Джуманджи: Зов джунглей / Jumanji: Welcome to the Jungle [Фэнтези, боевик, комедия, 2017] WEB-DLRip-AVC, Dub [iTunes]

salma3

198 | 59

2.43 ГБ


Начать новую тему Ответить на тему  [ 1 сообщение ] 




Для Мосгорсуда, Роскомнадзора и рекламодателей:: mosgorsud-torrent[собачка]yandex.ru
cron