Торрент файл
скачать торрент магнет ссылка Добавлен: 12 янв 2013, 23:44
Размер: 1.87 ГБ
Сидеров: 9
Личеров: 5
Автор

СообщениеДобавлено: 12 янв 2013, 23:44 

Не в сети
Супермодератор
Аватара пользователя
Дата регистрации:
11 апр 2010, 18:10
Спасибо: 5995 / 7
Сообщения: 56685
id="p-25224744-1">Как украсть небоскреб / Tower Heist



Страна: США
Жанр: комедия, криминал
Год выпуска: 2011
Продолжительность: 01:44:33
Перевод: Профессиональный (дублированный) [лицензия]
Режиссер: Бретт Рэтнер / Brett Ratner
В ролях: Бен Стиллер, Эдди Мёрфи, Кейси Аффлек, Алан Алда, Мэттью Бродерик, Теа Леони, Майкл Пенья, Габури «Гэбби» Сидибе, Стефен Хендерсон, Джадд Хёрш
Описание: Джошу Ковачу не повезло — его поимел злобный финансист, живущий в роскошных аппартаментах на верхнем этаже небоскреба. Чтобы вернуть деньги, Джош с друзьями решается на грандиозную кражу со взломом. Но одним им это не под силу, и они обращаются к матерому преступнику. Дело за малым — шесть новоявленных друзей Джоушена должны пробраться в пентхаус и отыскать 200 миллионов долларов.

Качество: BDRip
Формат: m4v
Видео кодек: H.264
Аудио кодек: AAC
Видео: 1024x426, 2388 Kbps, 23,976 fps
Аудио Rus: 48 kHz, AAC, 2ch, 159 kbps
MediaInfo
Код:
Код:
Полное имя : E:\iPad\Tower Heist.m4v
Формат : MPEG-4
Идентификатор кодека : M4V
Размер файла : 1,87 Гбайт
Продолжительность : 1 ч. 44 м.
Общий поток : 2556 Кбит/сек
Название фильма : Как украсть небоскреб
Исполнитель : Бретт Рэтнер
Жанр : Comedy
Дата записи : UTC 2011-11-04 07:00:00
Дата кодирования : UTC 2012-03-02 02:45:28
Дата пометки : UTC 2012-03-03 02:51:05
Обложка : Yes
desc : Джошу Ковачу не повезло — его поимел злобный финансист, живущий в роскошных апартаментах на верхнем этаже небоскреба. Чтобы вернуть деньги, Джош с друзьями решается на грандиозную кражу со взломом.
ldes : Джошу Ковачу не повезло — его поимел злобный финансист, живущий в роскошных апартаментах на верхнем этаже небоскреба. Чтобы вернуть деньги, Джош с друзьями решается на грандиозную кражу со взломом.
hdvd : 1
stik : 0
cnID : 486012078
xid : iPad:vendor_id:2011-195223
iTunEXTC : mpaa|PG-13|300|
iTunMOVI : / / / / cast / / / name / Бен Стиллер / / / name / Эдди Мёрфи / / / name / Кейси Аффлек / / / name / Алан Алда / / / name / Мэттью Бродерик / / / name / Теа Леони / / / name / Майкл Пенья / / / name / Габури «Гэбби» Сидибе / / / name / Стефен Хендерсон / / / name / Джадд Хёрш / / / directors / / / name / Бретт Рэтнер / / / producers / / / name / Брайан Грейзер / / / name / Эдди Мёрфи / / / name / Билл Карраро / / / screenwriters / / / name / Тед Гриффин / / / name / Джефф Натансон / / / name / Адам Купер / / / /
Видео
Идентификатор : 1
Формат : AVC
Формат/Информация : Advanced Video Codec
Профиль формата : [email protected]
Параметр CABAC формата : Да
Параметр ReFrames формата : 9 кадры
Идентификатор кодека : avc1
Идентификатор кодека/Информация : Advanced Video Coding
Продолжительность : 1 ч. 44 м.
Вид битрейта : Переменный
Битрейт : 2388 Кбит/сек
Максимальный битрейт : 10,9 Мбит/сек
Ширина : 1024 пикс.
Высота : 426 пикс.
Соотношение сторон : 2,40:1
Режим частоты кадров : Постоянный
Частота кадров : 23,976 кадр/сек
Цветовое пространство : YUV
Подвыборка цветности : 4:2:0
Битовая глубина : 8 бит
Тип развёртки : Прогрессивная
Бит/(Пиксели*Кадры) : 0.228
Размер потока : 1,74 Гбайт (93%)
Библиотека кодирования : x264 core 119 r2106 07efeb4
Настройки программы : cabac=1 / ref=9 / deblock=1:-2:-1 / analyse=0x3:0x133 / me=umh / subme=10 / psy=1 / psy_rd=1.00:0.10 / mixed_ref=1 / me_range=32 / chroma_me=1 / trellis=2 / 8x8dct=1 / cqm=0 / deadzone=21,11 / fast_pskip=0 / chroma_qp_offset=-3 / threads=12 / sliced_threads=0 / nr=0 / decimate=1 / interlaced=0 / bluray_compat=0 / constrained_intra=0 / bframes=8 / b_pyramid=2 / b_adapt=2 / b_bias=0 / direct=3 / weightb=1 / open_gop=0 / weightp=2 / keyint=250 / keyint_min=23 / scenecut=40 / intra_refresh=0 / rc=2pass / mbtree=0 / bitrate=2388 / ratetol=1.0 / qcomp=0.60 / qpmin=0 / qpmax=69 / qpstep=4 / cplxblur=20.0 / qblur=0.5 / ip_ratio=1.40 / pb_ratio=1.30 / aq=1:1.00
Язык : English
Дата кодирования : UTC 2012-03-02 02:45:28
Дата пометки : UTC 2012-03-02 02:48:20
Аудио
Идентификатор : 2
Формат : AAC
Формат/Информация : Advanced Audio Codec
Профиль формата : LC
Идентификатор кодека : 40
Продолжительность : 1 ч. 44 м.
Вид битрейта : Переменный
Битрейт : 159 Кбит/сек
Максимальный битрейт : 230 Кбит/сек
Канал(ы) : 2 канала(ов)
Расположение каналов : Front: L R
Частота : 48,0 КГц
Метод сжатия : С потерями
Размер потока : 119 Мбайт (6%)
Язык : Russian
Дата кодирования : UTC 2012-03-02 02:48:04
Дата пометки : UTC 2012-03-02 02:48:20
Текст
Идентификатор : 3
Формат : Apple text
Идентификатор кодека : text
Продолжительность : 1 ч. 44 м.
Вид битрейта : Постоянный
Битрейт : 1 бит/сек
Размер потока : 580 байт (0%)
Дата кодирования : UTC 2012-03-03 02:51:05
Дата пометки : UTC 2012-03-03 02:51:05

log
Код:
Код:
x264 [info]: frame I:1582 Avg QP:16.39 size: 90175
x264 [info]: frame P:32235 Avg QP:19.00 size: 24741
x264 [info]: frame B:116591 Avg QP:21.44 size: 7999
x264 [info]: consecutive B-frames: 2.2% 2.4% 7.7% 20.8% 18.1% 35.9% 7.1% 1.7% 4.0%
x264 [info]: mb I I16..4: 24.5% 48.5% 26.9%
x264 [info]: mb P I16..4: 1.0% 10.2% 1.6% P16..4: 38.1% 25.0% 17.2% 1.5% 0.4% skip: 5.0%
x264 [info]: mb B I16..4: 0.0% 0.8% 0.1% B16..8: 41.5% 12.6% 4.1% direct: 5.7% skip:35.2% L0:43.7% L1:43.9% BI:12.4%
x264 [info]: 8x8 transform intra:73.0% inter:58.2%
x264 [info]: direct mvs spatial:97.9% temporal:2.1%
x264 [info]: coded y,uvDC,uvAC intra: 93.5% 93.8% 84.8% inter: 24.7% 23.6% 9.4%
x264 [info]: i16 v,h,dc,p: 25% 7% 35% 33%
x264 [info]: i8 v,h,dc,ddl,ddr,vr,hd,vl,hu: 12% 9% 11% 9% 12% 12% 12% 11% 12%
x264 [info]: i4 v,h,dc,ddl,ddr,vr,hd,vl,hu: 13% 9% 4% 9% 14% 14% 13% 12% 12%
x264 [info]: i8c dc,h,v,p: 52% 15% 16% 17%
x264 [info]: Weighted P-Frames: Y:6.1% UV:3.0%
x264 [info]: ref P L0: 44.5% 11.1% 20.0% 6.6% 6.1% 3.6% 3.7% 1.8% 2.1% 0.3% 0.0%
x264 [info]: ref B L0: 68.5% 13.9% 6.9% 4.1% 2.8% 2.3% 1.2% 0.4%
x264 [info]: ref B L1: 91.6% 8.4%
x264 [info]: kb/s:2388.24

Скриншоты
Скриншоты, iPad



Вернуться к началу
 Профиль Отправить личное сообщение  
 
   Похожие торренты   Автор   Торрент   Размер 
В этой теме нет новых непрочитанных сообщений. Как украсть небоскреб / Tower Heist [комедия, криминал, 2011] BDRip 1080p, Dub

salma3

81 | 8

4.37 ГБ

В этой теме нет новых непрочитанных сообщений. Украсть Гарвард / Мой криминальный дядюшка / Stealing Harvard [Комедия, криминал, 2002] BDRip 720р, Mvo+Sub

salma3

59 | 14

4.49 ГБ

В этой теме нет новых непрочитанных сообщений. Brett Rossi Is Delicious / Восхитительная Бретт Росси (Kayden Kross / Stoya, TRENCHCOATx) [2016 г., Blondes, Exclusives, Gonzo, Threesome, DVDRip]

salma3

0 | 0

691.59 МБ

В этой теме нет новых непрочитанных сообщений. Семейное ограбление / Family Heist / Mes trésors [комедия, 2017] BDRip, Dub [Лицензия]

salma3

2686 | 342

1.46 ГБ

В этой теме нет новых непрочитанных сообщений. Семейное ограбление / Family Heist / Mes trésors [комедия, 2017] BDRip 1080p, Dub [Лицензия]

salma3

327 | 213

6.49 ГБ

В этой теме нет новых непрочитанных сообщений. Семейное ограбление / Family Heist / Mes trésors [комедия, 2017] BDRip 720p, Dub [Лицензия]

salma3

875 | 216

2.94 ГБ

В этой теме нет новых непрочитанных сообщений. Расплата / The Accountant (Боевик, триллер, драма, криминал, 2016) BDRip | iPad | iTunes

marya111

294 | 40

2.2 ГБ


Начать новую тему Ответить на тему  [ 1 сообщение ] 




Для Мосгорсуда, Роскомнадзора и рекламодателей:: mosgorsud-torrent[собачка]yandex.ru
cron