Торрент файл
скачать торрент магнет ссылка Добавлен: 12 янв 2013, 23:44
Размер: 3.16 ГБ
Сидеров: 7
Личеров: 5
Автор

СообщениеДобавлено: 12 янв 2013, 23:44 

Не в сети
Супермодератор
Аватара пользователя
Дата регистрации:
11 апр 2010, 18:10
Спасибо: 5996 / 7
Сообщения: 56684
id="p-25224744-1">Линкольн для адвоката / The Lincoln Lawyer

Страна: США
Жанр: триллер, драма, криминал
Год выпуска: 2011
Продолжительность: 01:58:28
Перевод: Профессиональный (полное дублирование)
Оригинальная аудиодорожка: английский
Режиссер: Брэд Фурман
Сценарий: Джон Романо, Майкл Коннелли
Продюсер: Ричард С. Райт, Сидни Киммел, Гари Лучези
В ролях: Мэттью МакКонахи, Мариса Томей, Райан Филипп, Уильям Х. Мэйси, Джош Лукас, Джон Легуизамо, Майкл Пенья, Боб Гантон, Фрэнсис Фишер, Брайан Крэнстон
Описание: Микки Холлер — блестящий и удачливый адвокат из Лос-Анджелеса, чей яркий имидж и образ жизни отлично дополняет его любимая машина «Линкольн». Очередное дело — нападение богатого клиента Луи Руле на проститутку сначала казалось легким, и он без труда добился оправдательного приговора для подзащитного. Но вскоре Микки понимает, что его клиент скрывает правду. Пока Холлер пытается вывести Руле на чистую воду, его подставляют по-крупному, и теперь уже угроза тюремного заключения нависает над самим Холлером.
Качество: BDRip
Исходник: BDRemux
Формат: m4v
Видео кодек: H.264
Аудио кодек: AAC
Видео: 1280х544, 3500 Kbps, 23,976 fps
Аудио RUS: 48 kHz, AAC, 2ch, 162 kbps - Профессиональный (полное дублирование)
Аудио ENG: 48 kHz, AAC, 2ch, 148 kbps - Оригинал
MediaInfo
Код:
Код:
Полное имя : F:\рипы\The Lincoln Lawyer_new.m4v
Формат : MPEG-4
Идентификатор кодека : M4V
Размер файла : 3,16 Гбайт
Продолжительность : 1 ч. 58 м.
Общий поток : 3822 Кбит/сек
Название фильма : Линкольн для адвоката
Исполнитель : Brad Furman
Жанр : Thriller
Дата записи : UTC 2011-03-18 07:00:00
Дата кодирования : UTC 2012-01-05 02:17:32
Дата пометки : UTC 2012-01-06 02:25:42
Обложка : Yes
desc : Микки Холлер — блестящий и удачливый адвокат из Лос-Анджелеса, чей яркий имидж и образ жизни отлично дополняет его любимая машина «Линкольн».
ldes : Микки Холлер — блестящий и удачливый адвокат из Лос-Анджелеса, чей яркий имидж и образ жизни отлично дополняет его любимая машина «Линкольн». Очередное дело — нападение богатого клиента Луи Руле на проститутку сначала казалось легким, и он без труда добился оправдательного приговора для подзащитного. Но вскоре Микки понимает, что его клиент скрывает правду. Пока Холлер пытается вывести Руле на чистую воду, его подставляют по-крупному, и теперь уже угроза тюремного заключения нависает над самим Холлером.
hdvd : 1
stik : 9
cnID : 429359187
xid : iPad:vendor_id:2011-461939
iTunEXTC : mpaa|R|400|
iTunMOVI : / / / / cast / / / name / Мэттью МакКонахи / / / name / Мариса Томей / / / name / Райан Филипп / / / name / Уильям Х. Мэйси / / / name / Джош Лукас / / / name / Джон Легуизамо / / / name / Майкл Пенья / / / name / Боб Гантон / / / name / Фрэнсис Фишер / / / name / Брайан Крэнстон / / / directors / / / name / Брэд Фурман / / / producers / / / name / Ричард С. Райт / / / name / Сидни Киммел / / / name / Гари Лучези / / / screenwriters / / / name / Джон Романо / / / name / Майкл Коннелли / / / /
Видео
Идентификатор : 1
Формат : AVC
Формат/Информация : Advanced Video Codec
Профиль формата : [email protected]
Параметр CABAC формата : Да
Параметр ReFrames формата : 9 кадры
Идентификатор кодека : avc1
Идентификатор кодека/Информация : Advanced Video Coding
Продолжительность : 1 ч. 58 м.
Вид битрейта : Переменный
Битрейт : 3500 Кбит/сек
Максимальный битрейт : 27,8 Мбит/сек
Ширина : 1280 пикс.
Высота : 544 пикс.
Соотношение сторон : 2,35:1
Режим частоты кадров : Переменный
Частота кадров : 23,976 кадр/сек
Минимальная частота кадров : 23,810 кадр/сек
Максимальная частота кадров : 24,390 кадр/сек
Цветовое пространство : YUV
Подвыборка цветности : 4:2:0
Битовая глубина : 8 бит
Тип развёртки : Прогрессивная
Бит/(Пиксели*Кадры) : 0.210
Размер потока : 2,89 Гбайт (92%)
Библиотека кодирования : x264 core 112
Настройки программы : cabac=1 / ref=9 / deblock=1:0:0 / analyse=0x3:0x113 / me=umh / subme=9 / psy=1 / psy_rd=1.00:0.00 / mixed_ref=1 / me_range=16 / chroma_me=1 / trellis=1 / 8x8dct=1 / cqm=0 / deadzone=21,11 / fast_pskip=1 / chroma_qp_offset=-2 / threads=3 / sliced_threads=0 / nr=0 / decimate=1 / interlaced=0 / constrained_intra=0 / bframes=6 / b_pyramid=2 / b_adapt=1 / b_bias=0 / direct=1 / weightb=1 / open_gop=0 / weightp=2 / keyint=240 / keyint_min=23 / scenecut=40 / intra_refresh=0 / rc_lookahead=40 / rc=2pass / mbtree=1 / bitrate=3500 / ratetol=1.0 / qcomp=0.60 / qpmin=3 / qpmax=51 / qpstep=4 / cplxblur=20.0 / qblur=0.5 / ip_ratio=1.40 / aq=1:1.00
Язык : English
Дата кодирования : UTC 2012-01-05 02:17:32
Дата пометки : UTC 2012-01-05 02:23:14
Основные цвета : BT.709-5, BT.1361, IEC 61966-2-4, SMPTE RP177
Характеристики трансфера : BT.709-5, BT.1361
Коэффициенты матрицы : BT.709-5, BT.1361, IEC 61966-2-4 709, SMPTE RP177
Аудио #1
Идентификатор : 2
Формат : AAC
Формат/Информация : Advanced Audio Codec
Профиль формата : LC
Идентификатор кодека : 40
Продолжительность : 1 ч. 58 м.
Вид битрейта : Переменный
Битрейт : 162 Кбит/сек
Максимальный битрейт : 223 Кбит/сек
Канал(ы) : 2 канала(ов)
Расположение каналов : Front: L R
Частота : 48,0 КГц
Метод сжатия : С потерями
Размер потока : 137 Мбайт (4%)
Заголовок : Russian stereo
Язык : Russian
Дата кодирования : UTC 2012-01-05 02:22:55
Дата пометки : UTC 2012-01-05 02:23:14
Аудио #2
Идентификатор : 3
Формат : AAC
Формат/Информация : Advanced Audio Codec
Профиль формата : LC
Идентификатор кодека : 40
Продолжительность : 1 ч. 58 м.
Вид битрейта : Переменный
Битрейт : 148 Кбит/сек
Максимальный битрейт : 225 Кбит/сек
Канал(ы) : 2 канала(ов)
Расположение каналов : Front: L R
Частота : 48,0 КГц
Метод сжатия : С потерями
Размер потока : 125 Мбайт (4%)
Заголовок : English stereo
Язык : English
Дата кодирования : UTC 2012-01-05 02:23:04
Дата пометки : UTC 2012-01-05 02:23:14
Текст #1
Идентификатор : 4
Формат : Timed text
Режим смешивания : sbtl
Идентификатор кодека : tx3g
Продолжительность : 1 ч. 53 м.
Вид битрейта : Переменный
Битрейт : 94 бит/сек
Размер потока : 78,0 Кбайт (0%)
Язык : English
Дата кодирования : UTC 2012-01-05 02:23:13
Дата пометки : UTC 2012-01-05 02:23:14
Текст #2
Идентификатор : 5
Формат : Timed text
Режим смешивания : sbtl
Идентификатор кодека : tx3g
Продолжительность : 1 ч. 52 м.
Вид битрейта : Переменный
Битрейт : 135 бит/сек
Размер потока : 112 Кбайт (0%)
Язык : Russian
Дата кодирования : UTC 2012-01-05 02:23:14
Дата пометки : UTC 2012-01-05 02:23:14

Log
Код:
Код:
x264 [info]: frame I:1964  Avg QP:13.10  size: 90561  PSNR Mean Y:49.75 U:53.15 V:53.21 Avg:50.61 Global:50.24
x264 [info]: frame P:80524 Avg QP:15.90  size: 27862  PSNR Mean Y:47.49 U:51.41 V:51.40 Avg:48.43 Global:48.13
x264 [info]: frame B:87955 Avg QP:18.24  size:  7806  PSNR Mean Y:46.82 U:51.24 V:51.22 Avg:47.83 Global:47.41
x264 [info]: consecutive B-frames: 20.1% 32.6% 11.1% 14.2% 16.2%  3.2%  2.5%
x264 [info]: mb I  I16..4: 14.3% 70.9% 14.8%
x264 [info]: mb P  I16..4:  1.5%  6.2%  1.3%  P16..4: 38.3% 30.1% 14.5%  0.0%  0.0%    skip: 8.0%
x264 [info]: mb B  I16..4:  0.1%  0.3%  0.1%  B16..8: 41.9% 11.6%  2.7%  direct: 3.3%  skip:40.2%  L0:43.6% L1:45.9% BI:10.6%
x264 [info]: 8x8 transform intra:69.4% inter:66.8%
x264 [info]: coded y,uvDC,uvAC intra: 81.4% 76.3% 52.2% inter: 31.0% 23.4% 3.3%
x264 [info]: i16 v,h,dc,p: 43% 13%  6% 39%
x264 [info]: i8 v,h,dc,ddl,ddr,vr,hd,vl,hu: 11%  9%  6% 10% 14% 14% 13% 12% 12%
x264 [info]: i4 v,h,dc,ddl,ddr,vr,hd,vl,hu: 11% 10%  4%  9% 15% 14% 14% 11% 12%
x264 [info]: i8c dc,h,v,p: 45% 20% 20% 15%
x264 [info]: Weighted P-Frames: Y:1.6% UV:0.9%
x264 [info]: ref P L0: 54.1% 11.0% 14.3%  6.2%  4.5%  3.4%  2.8%  1.7%  1.5%  0.6%  0.0%
x264 [info]: ref B L0: 71.9% 12.3%  6.6%  3.2%  2.5%  2.0%  1.3%  0.2%
x264 [info]: ref B L1: 93.4%  6.6%
x264 [info]: SSIM Mean Y:0.9876878 (19.097db)
x264 [info]: PSNR Mean Y:47.173 U:51.346 V:51.328 Avg:48.144 Global:47.760 kb/s:3497.53

Скриншоты
Для просмотра данного релиза на компьютере с ОС Windows рекомендуется использовать VLC media player



Вернуться к началу
 Профиль Отправить личное сообщение  
 
   Похожие торренты   Автор   Торрент   Размер 
В этой теме нет новых непрочитанных сообщений. Забирая жизни / Taking Lives [триллер, криминал, детектив, 2004] BDRip 720p, Dub [Режиссерская версия] [iPad]

salma3

0 | 0

1.64 ГБ

В этой теме нет новых непрочитанных сообщений. Расплата / The Accountant (Боевик, триллер, драма, криминал, 2016) BDRip | iPad | iTunes

marya111

294 | 40

2.2 ГБ

В этой теме нет новых непрочитанных сообщений. Бугимен 2 / Boogeyman 2 [ужасы, триллер, драма, 2007] BDRip 720p, Dub [iPad]

salma3

0 | 0

1.67 ГБ

В этой теме нет новых непрочитанных сообщений. Союзники / Allied [боевик, триллер, драма, 2016] BDRip 720p [iPad] [Лицензия]

salma3

20 | 5

1.52 ГБ

В этой теме нет новых непрочитанных сообщений. Бугимен / Boogeyman [ужасы, триллер, драма, детектив, 2005] BDRip 720p, Dub [iPad]

salma3

0 | 0

2.12 ГБ

В этой теме нет новых непрочитанных сообщений. Инферно / Inferno [боевик, триллер, драма, 2016] BDRip 720p, Dub [iPad] [Лицензия]

salma3

146 | 28

2.91 ГБ

В этой теме нет новых непрочитанных сообщений. Любой ценой / Hell or High Water [боевик, драма, криминал, вестерн, 2016] BDRip 720p, Dub [iPad] [Лицензия]

salma3

65 | 3

2.31 ГБ


Начать новую тему Ответить на тему  [ 1 сообщение ] 




Для Мосгорсуда, Роскомнадзора и рекламодателей:: mosgorsud-torrent[собачка]yandex.ru
cron