Торрент файл
скачать торрент магнет ссылка Добавлен: 12 янв 2013, 23:44
Размер: 2.9 ГБ
Сидеров: 1
Личеров: 3
Автор

СообщениеДобавлено: 12 янв 2013, 23:44 

Не в сети
Супермодератор
Аватара пользователя
Дата регистрации:
11 апр 2010, 18:10
Спасибо: 5996 / 7
Сообщения: 56684
id="p-25224744-1">Посылка / The Box«Смог бы ты отнять жизнь у незнакомца, чтобы изменить свою собственную?»

Год выпуска: 2009
Страна: США
Жанр: Триллер, драма, детектив, ужасы, фантастика
Продолжительность: 01:55:24
Перевод: Профессиональный (полное дублирование)
Русские субтитры: есть
Режиссер: Ричард Келли
В ролях: Кэмерон Диаз, Джеймс Марсден, Фрэнк Ланджелла, Джеймс Ребхорн, Холмс Осборн, Сэм Стоун, Джиллиан Джейкобс, Селия Уэстон, Дебора Раш, Лиза К. Виатт
Описание: Артур и Норма — молодая семья, которая испытывает финансовые затруднения. Неожиданно супруги становятся счастливыми обладателями коробочки с кнопкой.
Им объясняют что, если нажать на кнопку, они немедленно получат 1 млн. долларов. Одна тонкость — в этот момент где-то умрет совершенно незнакомый им человек…
Качество: BDRip 720p
Исходник: BDRip 720p
Формат: m4v
Видео кодек: H.264
Аудио кодек: AAC
Видео: 1280х534, 3272 Kbps, 23,976 fps
Аудио RUS: 48 kHz, AAC, 2ch, 167 kbps - Профессиональный (дублированный)
Аудио ENG: 48 kHz, AAC, 2ch, 156 kbps - Оригинал
MediaInfo
Код:
Код:
Полное имя : F:\The Box.m4v
Формат : MPEG-4
Идентификатор кодека : M4V
Размер файла : 2,90 Гбайт
Продолжительность : 1 ч. 55 м.
Общий поток : 3602 Кбит/сек
Название фильма : Посылка
Исполнитель : Richard Kelly
Жанр : Thriller
Дата записи : UTC 2009-11-06 08:00:00
Обложка : Yes
soar : Richard Kelly
desc : Артур и Норма — молодая семья, которая испытывает финансовые затруднения. Неожиданно супруги становятся счастливыми обладателями коробочки с кнопкой.
ldes : Артур и Норма — молодая семья, которая испытывает финансовые затруднения. Неожиданно супруги становятся счастливыми обладателями коробочки с кнопкой.
hdvd : 1
cnID : 340420756
xid : iPad:vendor_id:2009-406251
iTunEXTC : mpaa|PG-13|300|
iTunMOVI : / / / / cast / / / name / Кэмерон Диаз / / / name / Джеймс Марсден / / / name / Фрэнк Ланджелла / / / name / Джеймс Ребхорн / / / name / Холмс Осборн / / / name / Сэм Стоун / / / name / Джиллиан Джейкобс / / / name / Селия Уэстон / / / name / Дебора Раш / / / name / Лиза К. Виатт / / / directors / / / name / Ричард Келли / / / producers / / / name / Ричард Келли / / / name / Дэн Лин / / / name / Келли МакКиттрик / / / screenwriters / / / name / Ричард Келли / / / name / Ричард Мэтисон / / / /
Видео
Идентификатор : 1
Формат : AVC
Формат/Информация : Advanced Video Codec
Профиль формата : [email protected]
Параметр CABAC формата : Да
Параметр ReFrames формата : 11 кадры
Идентификатор кодека : avc1
Идентификатор кодека/Информация : Advanced Video Coding
Продолжительность : 1 ч. 55 м.
Вид битрейта : Переменный
Битрейт : 3272 Кбит/сек
Максимальный битрейт : 27,0 Мбит/сек
Ширина : 1280 пикс.
Высота : 534 пикс.
Соотношение сторон : 2,35:1
Режим частоты кадров : Постоянный
Частота кадров : 23,976 кадр/сек
Цветовое пространство : YUV
Подвыборка цветности : 4:2:0
Битовая глубина : 8 бит
Тип развёртки : Прогрессивная
Бит/(Пиксели*Кадры) : 0.200
Размер потока : 2,64 Гбайт (91%)
Библиотека кодирования : x264 core 84 r1416 fcf70c2
Настройки программы : cabac=1 / ref=11 / deblock=1:-3:-3 / analyse=0x3:0x113 / me=umh / subme=10 / psy=1 / psy_rd=1.0:0.1 / mixed_ref=1 / me_range=32 / chroma_me=1 / trellis=2 / 8x8dct=1 / cqm=0 / deadzone=21,11 / fast_pskip=0 / chroma_qp_offset=-3 / threads=6 / sliced_threads=0 / nr=0 / decimate=0 / mbaff=0 / constrained_intra=0 / bframes=6 / b_pyramid=2 / b_adapt=2 / b_bias=0 / direct=3 / wpredb=1 / wpredp=2 / keyint=240 / keyint_min=24 / scenecut=40 / intra_refresh=0 / rc_lookahead=80 / rc=2pass / mbtree=1 / bitrate=3272 / ratetol=1.0 / qcomp=0.70 / qpmin=10 / qpmax=51 / qpstep=4 / cplxblur=20.0 / qblur=0.5 / ip_ratio=1.40 / aq=1:0.80
Язык : English
Дата кодирования : UTC 2011-11-12 09:45:24
Дата пометки : UTC 2011-11-12 09:47:52
Аудио #1
Идентификатор : 2
Формат : AAC
Формат/Информация : Advanced Audio Codec
Профиль формата : LC
Идентификатор кодека : 40
Продолжительность : 1 ч. 55 м.
Вид битрейта : Переменный
Битрейт : 167 Кбит/сек
Максимальный битрейт : 246 Кбит/сек
Канал(ы) : 2 канала(ов)
Расположение каналов : Front: L R
Частота : 48,0 КГц
Метод сжатия : С потерями
Размер потока : 138 Мбайт (5%)
Заголовок : Russian stereo
Язык : Russian
Дата кодирования : UTC 2011-11-12 09:47:39
Дата пометки : UTC 2011-11-12 09:47:52
Аудио #2
Идентификатор : 3
Формат : AAC
Формат/Информация : Advanced Audio Codec
Профиль формата : LC
Идентификатор кодека : 40
Продолжительность : 1 ч. 55 м.
Вид битрейта : Переменный
Битрейт : 156 Кбит/сек
Максимальный битрейт : 242 Кбит/сек
Канал(ы) : 2 канала(ов)
Расположение каналов : Front: L R
Частота : 48,0 КГц
Метод сжатия : С потерями
Размер потока : 129 Мбайт (4%)
Заголовок : English stereo
Язык : English
Дата кодирования : UTC 2011-11-12 09:47:46
Дата пометки : UTC 2011-11-12 09:47:52
Текст #1
Идентификатор : 4
Формат : Timed text
Режим смешивания : sbtl
Идентификатор кодека : tx3g
Продолжительность : 1 ч. 47 м.
Вид битрейта : Переменный
Битрейт : 76 бит/сек
Размер потока : 59,9 Кбайт (0%)
Язык : Russian
Дата кодирования : UTC 2011-11-12 09:47:52
Дата пометки : UTC 2011-11-12 09:47:52
Текст #2
Идентификатор : 5
Формат : Timed text
Режим смешивания : sbtl
Идентификатор кодека : tx3g
Продолжительность : 1 ч. 46 м.
Вид битрейта : Переменный
Битрейт : 54 бит/сек
Размер потока : 42,1 Кбайт (0%)
Язык : English
Дата кодирования : UTC 2011-11-12 09:47:52
Дата пометки : UTC 2011-11-12 09:47:52
Текст #3
Идентификатор : 6
Формат : Apple text
Идентификатор кодека : text
Продолжительность : 1 ч. 55 м.
Вид битрейта : Постоянный
Битрейт : 1 бит/сек
Размер потока : 609 байт (0%)
Дата кодирования : UTC 2011-11-13 09:49:29
Дата пометки : UTC 2011-11-13 09:49:29

Скриншоты
Для просмотра данного релиза на компьютере с ОС Windows рекомендуется использовать VLC media player



Вернуться к началу
 Профиль Отправить личное сообщение  
 
   Похожие торренты   Автор   Торрент   Размер 
В этой теме нет новых непрочитанных сообщений. Бугимен / Boogeyman [ужасы, триллер, драма, детектив, 2005] BDRip 720p, Dub [iPad]

salma3

0 | 0

2.12 ГБ

В этой теме нет новых непрочитанных сообщений. Прибытие / Arrival [фантастика, триллер, драма, детектив, 2016] BDRip 720p, Dub [iPad] [Лицензия]

salma3

197 | 32

1.17 ГБ

В этой теме нет новых непрочитанных сообщений. Коллекционер / The Collector [ужасы, триллер, 2009] BDRip 720p, Dub [iPad]

salma3

0 | 0

1.9 ГБ

В этой теме нет новых непрочитанных сообщений. Клетка / The Cell [ужасы, фантастика, триллер, 2000] BDRip 720p, Dub [iPad]

salma3

13 | 2

2.27 ГБ

В этой теме нет новых непрочитанных сообщений. 400 дней / 400 Days [фантастика, триллер, детектив, 2015] BDRip 720p, Dvo [iPad]

salma3

45 | 21

1.66 ГБ

В этой теме нет новых непрочитанных сообщений. 400 дней / 400 Days [фантастика, триллер, детектив, 2015] BDRip 720p, Dvo [iPad]

salma3

2 | 1

1.66 ГБ

В этой теме нет новых непрочитанных сообщений. Избави нас от лукавого / Deliver Us from Evil [ужасы, триллер, детектив, 2014] BDRip 720p, Dub [iPad]

salma3

0 | 0

1.83 ГБ


Начать новую тему Ответить на тему  [ 1 сообщение ] 




Для Мосгорсуда, Роскомнадзора и рекламодателей:: mosgorsud-torrent[собачка]yandex.ru
cron