Торрент файл
скачать торрент магнет ссылка Добавлен: 12 янв 2013, 23:43
Размер: 673.98 МБ
Сидеров: 0
Личеров: 3
Автор

СообщениеДобавлено: 12 янв 2013, 23:43 

Не в сети
Супермодератор
Аватара пользователя
Дата регистрации:
11 апр 2010, 18:10
Спасибо: 5996 / 7
Сообщения: 56684
id="p-25224744-1"> Самый быстрый «Индиан» / The World's Fastest Indian

Страна:
Год выпуска: 2005
Жанр: Драма / Биография / Спорт
Продолжительность: 02:01:46
Перевод: Полный дубляж
Субтитры: нет
Тэги/ Tags: Вшиты обложки к фильму
[url=http://www.kinopoisk.ru/level/1/film/81512/[/url][/url] 8.175
8.0/10
Режиссер:

Роджер Дональдсон/Roger Donaldson
В ролях:
Энтони Хопкинс/ Anthony Hopkins
Айэйн Ри/ Iain Rea
Тесса Митчел/ Tessa Mitchell
Аарон Мерфи/ Aaron Murphy
Тим Шэдболт/ Tim Shadbolt
Энни Уиттл/ Annie Whittle
Грег Джонсон/ Greg Johnson
Энтони Старр/ Antony Starr
Кейт Салливан/ Kate Sullivan
Крэйг Холл/ Craig Hall
и другие ...
Описание:
Самый быстрый «Индиан» (англ. The World's Fastest Indian) — художественный фильм 2005 года производства студии New Zealand Film Commission с Энтони Хопкинсом в главной роли.

История легендарного новозеландца Берта Мунро, потратившего многие годы на усовершенствование и модификацию своего мотоцикла марки "1920 Indian Scout". На нем Берт Мунро исколесил весь мир и в итоге реализовал свою мечту: на знаменитых гонках 1967 года, проходивших в соляной пустыне Бонневилль-Флэтс в американском штате Юта.
С максимальных для старичка «Индиана» 58 миль/час, он смог разогнать своего железного друга до 200 миль/час, установив тем самым в 1967 году рекорд скорости, побить который не удалось до сих пор ...
Качество: HDTVRip
Формат: MP4
Видео кодек: H.264
Аудио кодек: AAC
Видео: 480x272, 577 Kbps, 25.000 fps
Аудио: AAC LC, Variable, 192 Kbps, 2 channels
Скриншоты

Скриншоты (хронометраж)

Тех. данные

General
Complete name : Samiy bistriy Indian.2005.DVDRip.Made by Kronin.mp4
Format : MPEG-4
Format profile : Base Media
Codec ID : isom
File size : 674 MiB
Duration : 2h 1mn
Overall bit rate : 774 Kbps
Encoded date : UTC 2009-09-19 02:58:47
Tagged date : UTC 2009-09-19 02:58:47
Video
ID : 1
Format : AVC
Format/Info : Advanced Video Codec
Format profile : [email protected]
Format settings, CABAC : No
Format settings, ReFrames : 6 frames
Codec ID : avc1
Codec ID/Info : Advanced Video Coding
Duration : 2h 1mn
Bit rate mode : Variable
Bit rate : 577 Kbps
Maximum bit rate : 2 243 Kbps
Width : 480 pixels
Height : 272 pixels
Display aspect ratio : 16:9
Frame rate mode : Constant
Frame rate : 25.000 fps
Resolution : 24 bits
Colorimetry : 4:2:0
Scan type : Progressive
Bits/(Pixel*Frame) : 0.177
Stream size : 502 MiB (75%)
Writing library : x264 core 65 r999kMod cc51047
Encoding settings : cabac=0 / ref=6 / deblock=1:0:0 / analyse=0x1:0x131 / me=umh / subme=6 / psy_rd=1.0:0.0 / mixed_ref=1 / me_range=16 / chroma_me=1 / trellis=0 / 8x8dct=0 / cqm=0 / deadzone=21,11 / chroma_qp_offset=-2 / threads=2 / thread_queue=2 / nr=0 / decimate=1 / mbaff=0 / bframes=0 / keyint=250 / keyint_min=25 / scenecut=40(pre) / rc=crf / crf=21.0000 / qcomp=0.60 / qpmin=10 / qpmax=51 / qpstep=4 / ip_ratio=1.40 / aq=1:1.00
Encoded date : UTC 2009-09-19 02:58:47
Tagged date : UTC 2009-09-19 03:01:35
Audio
ID : 2
Format : AAC
Format/Info : Advanced Audio Codec
Format version : Version 4
Format profile : LC
Format settings, SBR : No
Codec ID : 40
Duration : 2h 1mn
Bit rate mode : Variable
Bit rate : 192 Kbps
Maximum bit rate : 241 Kbps
Channel(s) : 2 channels
Channel positions : L R
Sampling rate : 48.0 KHz
Resolution : 16 bits
Stream size : 169 MiB (25%)
Encoded date : UTC 2009-09-19 03:00:59
Tagged date : UTC 2009-09-19 03:01:35
Пожалуйста внимание!



Вернуться к началу
 Профиль Отправить личное сообщение  
 
   Похожие торренты   Автор   Торрент   Размер 
В этой теме нет новых непрочитанных сообщений. Самый быстрый «Индиан» / The World's Fastest Indian [драма, биография, спорт, 2005] BDRemux 1080p, Dub

salma3

0 | 0

32.98 ГБ

В этой теме нет новых непрочитанных сообщений. Нокдаун / Cinderella Man [драма, биография, спорт, 2005] BDRip 1080p, Mvo

salma3

72 | 27

4.37 ГБ

В этой теме нет новых непрочитанных сообщений. Теннис. ATP Indian Wells 2017. Финал. Стэн Вавринка - Роджер Федерер [19.03] (2017) WEBRip 1080р

salma3

3 | 1

5.23 ГБ

В этой теме нет новых непрочитанных сообщений. Нокдаун / Cinderella Man [Драма, биография, спорт, реальные события, 2005] BDRip 1080, Dub

salma3

21 | 13

22.06 ГБ

В этой теме нет новых непрочитанных сообщений. Ангелы Карли / Kiss and Cry [драма, мелодрама, биография, спорт, музыка, 2017] HDTVRip, Dvo

salma3

35 | 8

1.46 ГБ

В этой теме нет новых непрочитанных сообщений. [UK Reality Swingers / Killergram.com] Masked Maya (The Indian Cum Slut) [2018-06-14, Brunette, Indian, Straight, Gangbang, 360p]

salma3

0 | 0

201.66 МБ

В этой теме нет новых непрочитанных сообщений. Кровавый спорт / Bloodsport [драма, спорт, биография, боевик, 1988] BDRemux 1080p, Mvo

salma3

10 | 2

17.28 ГБ


Начать новую тему Ответить на тему  [ 1 сообщение ] 




Для Мосгорсуда, Роскомнадзора и рекламодателей:: mosgorsud-torrent[собачка]yandex.ru
cron