Торрент файл
скачать торрент магнет ссылка Добавлен: 12 янв 2013, 23:43
Размер: 1.59 ГБ
Сидеров: 0
Личеров: 4
Автор

СообщениеДобавлено: 12 янв 2013, 23:43 

Не в сети
Супермодератор
Аватара пользователя
Дата регистрации:
11 апр 2010, 18:10
Спасибо: 5995 / 7
Сообщения: 56684
id="p-25224744-1">Римские приключения / To Rome with Love
Год выпуска: 2012
Страна: США, Италия, Испания
Жанр: мелодрама, комедия
Продолжительность: 01:51:54
Перевод: Дубляж
Субтитры: Итальянскиеие, Английские
Навигация: по главам (с изображениями)
Режиссер: Вуди Аллен
В ролях: Вуди Аллен, Алек Болдуин, Роберто Бениньи, Пенелопа Крус, Джуди Дэвис, Джесси Айзенберг, Грета Гервиг, Эллен Пейдж, Флавио Паренти, Элисон Пилл
Описание:Комедия, действие которой происходит в одном из самых прекрасных городов мира. Мы встретим известного американского архитектора, переживающего вторую юность, простого обывателя, неожиданно проснувшегося знаменитым, молодоженов из провинции, каждого из которых ждут романтические открытия, и американского оперного постановщика, задумавшего вывести на сцену поющего работника похоронного бюро…
Формат: MP4 (контейнер m4v)
Исходник: BD-Remux
Качество: BDRip
Видео 480p Release: 640x480 анаморф 852x480 at 23.976 fps, MPEG-4 AVC, ~1700 kbps avg
Аудио №1: Русский, AAC LC, 2 канала, 48 кГц, VBR 160 kbps
Аудио №2: Английский, AAC LC, 2 канала, 48 кГц, VBR 160 kbps
7.570 / 10
Скриншоты 480p
MediaInfo 480p
Общее
Полное имя : /Volumes/Media/Convert/To Rome with Love (480p).m4v
Формат : MPEG-4
Профиль формата : Base Media / Version 2
Идентификатор кодека : mp42
Размер файла : 1,59 Гбайт
Продолжительность : 1 ч. 51 м.
Режим общего битрейта : Переменный
Общий поток : 2040 Кбит/сек
Название фильма : To Rome With Love
Исполнитель : Woody Allen
Жанр : Comedy
Дата записи : UTC 2012-04-20 07:00:00
Дата кодирования : UTC 2012-12-04 19:19:57
Дата пометки : UTC 2012-12-04 20:00:26
Обложка : Yes
desc : Комедия, действие которой происходит в одном из самых прекрасных городов мира. Мы встретим известного американского архитектора, переживающего вторую юность, простого обывателя, неожиданно проснувшегося знаменитым, молодоженов из провинции, каждого из которых ждут романтические открытия, и американского оперного постановщика, задумавшего вывести на сцену поющего работника похоронного бюро…
ldes : Комедия, действие которой происходит в одном из самых прекрасных городов мира. Мы встретим известного американского архитектора, переживающего вторую юность, простого обывателя, неожиданно проснувшегося знаменитым, молодоженов из провинции, каждого из которых ждут романтические открытия, и американского оперного постановщика, задумавшего вывести на сцену поющего работника похоронного бюро…
stik : 9
rtng : 0
cnID : 579440209
xid : Apple:vendor_id:2012-58340
iTunEXTC : mpaa|R|400|
iTunMOVI : <?xml version="1.0" encoding="UTF-8"?> / <!DOCTYPE plist PUBLIC "-/Apple/DTD PLIST 1.0/EN" "http://www.apple.com/DTDs/PropertyList-1.0.dtd"> / <plist version="1.0"> / <dict> / <key>cast</key> / <array> / <dict> / <key>name</key> / <string>Вуди Аллен</string> / </dict> / <dict> / <key>name</key> / <string>Алек Болдуин</string> / </dict> / <dict> / <key>name</key> / <string>Роберто Бениньи</string> / </dict> / <dict> / <key>name</key> / <string>Пенелопа Крус</string> / </dict> / <dict> / <key>name</key> / <string>Джуди Дэвис</string> / </dict> / <dict> / <key>name</key> / <string>Джесси Айзенберг</string> / </dict> / <dict> / <key>name</key> / <string>Грета Гервиг</string> / </dict> / <dict> / <key>name</key> / <string>Эллен Пейдж</string> / </dict> / <dict> / <key>name</key> / <string>Флавио Паренти</string> / </dict> / <dict> / <key>name</key> / <string>Элисон Пилл</string> / </dict> / </array> / <key>directors</key> / <array> / <dict> / <key>name</key> / <string>Вуди Аллен</string> / </dict> / </array> / <key>producers</key> / <array> / <dict> / <key>name</key> / <string>Фарук Алатан,Летти Аронсон</string> / </dict> / </array> / <key>screenwriters</key> / <array> / <dict> / <key>name</key> / <string>Вуди Аллен</string> / </dict> / </array> / <key>studio</key> / <string>Medusa Film, Gravier Productions, Perdido Productions</string> / </dict> / </plist>
Видео #1
Идентификатор : 1
Формат : AVC
Формат/Информация : Advanced Video Codec
Профиль формата : [email protected]
Параметр CABAC формата : Нет
Параметр ReFrames формата : 2 кадра
Идентификатор кодека : avc1
Идентификатор кодека/Информация : Advanced Video Coding
Продолжительность : 1 ч. 51 м.
Вид битрейта : Переменный
Битрейт : 1700 Кбит/сек
Ширина : 640 пикселей
Высота : 480 пикселей
Соотношение сторон : 16:9
Режим частоты кадров : Переменный
Частота кадров : 23,976 кадра/сек
Минимальная частота кадров : 23,810 кадра/сек
Максимальная частота кадров : 24,390 кадра/сек
Цветовое пространство : YUV
Субдискретизация насыщенности : 4:2:0
Битовая глубина : 8 бит
Тип развёртки : Прогрессивная
Бит/(Пиксели*Кадры) : 0.231
Размер потока : 1,33 Гбайт (83%)
Библиотека кодирования : x264 core 120
Настройки программы : cabac=0 / ref=2 / deblock=1:0:0 / analyse=0x1:0x111 / me=umh / subme=6 / psy=1 / psy_rd=1.00:0.00 / mixed_ref=1 / me_range=16 / chroma_me=1 / trellis=0 / 8x8dct=0 / cqm=0 / deadzone=21,11 / fast_pskip=1 / chroma_qp_offset=-2 / threads=12 / sliced_threads=0 / nr=0 / decimate=1 / interlaced=0 / bluray_compat=0 / constrained_intra=0 / bframes=0 / weightp=0 / keyint=240 / keyint_min=24 / scenecut=40 / intra_refresh=0 / rc_lookahead=40 / rc=2pass / mbtree=1 / bitrate=1700 / ratetol=1.0 / qcomp=0.60 / qpmin=3 / qpmax=69 / qpstep=4 / cplxblur=20.0 / qblur=0.5 / vbv_maxrate=5000 / vbv_bufsize=5000 / nal_hrd=none / ip_ratio=1.40 / aq=1:1.00
Язык : English
Дата кодирования : UTC 2012-12-04 19:19:57
Дата пометки : UTC 2012-12-04 19:50:56
Основные цвета : BT.709
Характеристики трансфера : BT.709
Коэффициенты матрицы : BT.709
Видео #2
Идентификатор : 7
Формат : JPEG
Идентификатор кодека : jpeg
Продолжительность : 1 ч. 51 м.
Вид битрейта : Переменный
Битрейт : 2011 бит/сек
Ширина : 640 пикселей
Высота : 360 пикселей
Соотношение сторон : 16:9
Режим частоты кадров : Переменный
Частота кадров : 0,004 кадр/сек
Минимальная частота кадров : 0,001 кадр/сек
Максимальная частота кадров : 0,009 кадр/сек
Цветовое пространство : YUV
Субдискретизация насыщенности : 4:2:0
Битовая глубина : 8 бит
Метод сжатия : С потерями
Бит/(Пиксели*Кадры) : 2.182
Размер потока : 1,44 Мбайт (0%)
Язык : English
Дата кодирования : UTC 2012-12-04 19:54:29
Дата пометки : UTC 2012-12-04 19:54:30
Аудио #1
Идентификатор : 2
Формат : AAC
Формат/Информация : Advanced Audio Codec
Профиль формата : LC
Идентификатор кодека : 40
Продолжительность : 1 ч. 51 м.
Вид битрейта : Переменный
Битрейт : 164 Кбит/сек
Максимальный битрейт : 265 Кбит/сек
Каналы : 2 канала
Расположение каналов : Front: L R
Частота : 48,0 КГц
Метод сжатия : С потерями
Размер потока : 131 Мбайт (8%)
Язык : Russian
Дата кодирования : UTC 2012-12-04 19:52:52
Дата пометки : UTC 2012-12-04 19:53:33
Аудио #2
Идентификатор : 3
Формат : AAC
Формат/Информация : Advanced Audio Codec
Профиль формата : LC
Идентификатор кодека : 40
Продолжительность : 1 ч. 51 м.
Вид битрейта : Переменный
Битрейт : 163 Кбит/сек
Максимальный битрейт : 260 Кбит/сек
Каналы : 2 канала
Расположение каналов : Front: L R
Частота : 48,0 КГц
Метод сжатия : С потерями
Размер потока : 130 Мбайт (8%)
Язык : English
Дата кодирования : UTC 2012-12-04 19:52:52
Дата пометки : UTC 2012-12-04 19:54:11
Текст #1
Идентификатор : 4
Формат : Timed text
Режим смешивания : sbtl
Идентификатор кодека : tx3g
Продолжительность : 1 ч. 47 м.
Вид битрейта : Переменный
Битрейт : 96 бит/сек
Размер потока : 75,6 Кбайт (0%)
Язык : Italian
Дата кодирования : UTC 2012-12-04 19:52:52
Дата пометки : UTC 2012-12-04 19:54:17
Текст #2
Идентификатор : 5
Формат : Timed text
Режим смешивания : sbtl
Идентификатор кодека : tx3g
Продолжительность : 1 ч. 47 м.
Вид битрейта : Переменный
Битрейт : 95 бит/сек
Размер потока : 74,7 Кбайт (0%)
Язык : English
Дата кодирования : UTC 2012-12-04 19:52:52
Дата пометки : UTC 2012-12-04 19:54:20
Текст #3
Идентификатор : 6
Формат : Apple text
Идентификатор кодека : text
Продолжительность : 1 ч. 51 м.
Вид битрейта : Постоянный
Битрейт : 1 бит/сек
Размер потока : 624 байт (0%)
Язык : English
Дата кодирования : UTC 2012-12-04 19:54:20
Дата пометки : UTC 2012-12-04 19:54:20
Меню
00:00:00.000 : 00:00:00.000
00:06:19.546 : 00:06:19.546
00:10:09.984 : 00:10:09.984
00:12:16.152 : 00:12:16.152
00:15:48.865 : 00:15:48.865
00:19:16.364 : 00:19:16.364
00:22:59.503 : 00:22:59.503
00:28:42.554 : 00:28:42.554
00:32:01.753 : 00:32:01.753
00:38:15.001 : 00:38:15.001
00:44:11.607 : 00:44:11.607
00:49:16.078 : 00:49:16.078
00:55:22.069 : 00:55:22.069
00:59:14.384 : 00:59:14.384
01:04:06.551 : 01:04:06.551
01:08:56.424 : 01:08:56.424
01:13:09.802 : 01:13:09.802
01:17:49.248 : 01:17:49.248
01:20:25.654 : 01:20:25.654
01:25:38.467 : 01:25:38.467
01:29:58.602 : 01:29:58.602
01:34:37.547 : 01:34:37.547
01:38:53.010 : 01:38:53.010
01:40:38.324 : 01:40:38.324
x264Log 480p
x264 [info]: frame I:1091 Avg QP:17.15 size: 48770 PSNR Mean Y:46.48 U:49.34 V:50.25 Avg:47.18 Global:46.08
x264 [info]: frame P:159902 Avg QP:20.58 size: 8592 PSNR Mean Y:43.53 U:46.04 V:46.95 Avg:44.20 Global:43.33
x264 [info]: mb I I16..4: 19.7% 0.0% 80.3%
x264 [info]: mb P I16..4: 0.6% 0.0% 1.4% P16..4: 44.5% 20.4% 9.5% 0.0% 0.0% skip:23.6%
x264 [info]: coded y,uvDC,uvAC intra: 71.3% 84.7% 70.0% inter: 27.1% 29.8% 9.9%
x264 [info]: i16 v,h,dc,p: 62% 9% 9% 19%
x264 [info]: i4 v,h,dc,ddl,ddr,vr,hd,vl,hu: 32% 11% 13% 6% 8% 10% 6% 9% 5%
x264 [info]: i8c dc,h,v,p: 45% 12% 33% 10%
x264 [info]: ref P L0: 73.8% 26.2%
x264 [info]: SSIM Mean Y:0.9813972 (17.304db)
x264 [info]: PSNR Mean Y:43.549 U:46.063 V:46.971 Avg:44.217 Global:43.342 kb/s:1700.18
iTunes MetaTag
XID: Apple:vendor_id:2012-58340
contentID: 579440209
Screenwriters: Вуди Аллен
Producers: Фарук Алатан,Летти Аронсон
Director: Вуди Аллен
Cast: Вуди Аллен, Алек Болдуин, Роберто Бениньи, Пенелопа Крус, Джуди Дэвис, Джесси Айзенберг, Грета Гервиг, Эллен Пейдж, Флавио Паренти, Элисон Пилл
Studio: Medusa Film, Gravier Productions, Perdido Productions
Rating: 5
Long Description: Комедия, действие которой происходит в одном из самых прекрасных городов мира. Мы встретим известного американского архитектора, переживающего вторую юность, простого обывателя, неожиданно проснувшегося знаменитым, молодоженов из провинции, каждого из которых ждут романтические открытия, и американского оперного постановщика, задумавшего вывести на сцену поющего работника похоронного бюро…
Description: Комедия, действие которой происходит в одном из самых прекрасных городов мира. Мы встретим известного американского архитектора, переживающего вторую юность, простого обывателя, неожиданно проснувшегося знаменитым, молодоженов из провинции, каждого из которых ждут романтические открытия, и американского оперного постановщика, задумавшего вывести на сцену поющего работника похоронного бюро…
Release Date: 2012-04-20T07:00:00Z
Genre: Comedy
Artist: Woody Allen
Name: To Rome With Love
HD Версия http://rutracker.org/forum/viewtopic.php?t=4272475



Вернуться к началу
 Профиль Отправить личное сообщение  
 
   Похожие торренты   Автор   Торрент   Размер 
В этой теме нет новых непрочитанных сообщений. Римские свидания / All Roads Lead to Rome [Комедия, 2015] WEB-DLRip, dub [Звук с TS]

Dracon

3060 | 178

1.37 ГБ

В этой теме нет новых непрочитанных сообщений. Римские свидания / All Roads Lead to Rome [комедия, 2015] HDRip, Dub [iTunes]

salma3

39 | 16

1.37 ГБ

В этой теме нет новых непрочитанных сообщений. Преступления и проступки / Crimes and Misdemeanors (Вуди Аллен / Woody Allen) [1989г.,арт-хаус, драма, мелодрама, комедия, DVDRip] AVO

Alfredovich

10 | 4

1.45 ГБ

В этой теме нет новых непрочитанных сообщений. Иррациональный человек / Irrational Man (Вуди Аллен) [драма, детектив, 2015] BDRip, dub [Чистый звук]

Dracon

11773 | 952

1.45 ГБ

В этой теме нет новых непрочитанных сообщений. Иррациональный человек / Irrational Man (Вуди Аллен) [драма, детектив, 2015] BDRip 720p, dub [Чистый звук]

Dracon

3644 | 187

3.81 ГБ

В этой теме нет новых непрочитанных сообщений. Римские общественные бани / Terumae romae [фантастика, комедия, 2012] BDRip, Avo

salma3

183 | 18

1.48 ГБ

В этой теме нет новых непрочитанных сообщений. Barbara Dare&#039;s Rome Adventure (Barbara Dare&#039;s Roman Holiday) / Римские каникулы Барбары Дэйр (Fred J. Lincoln, Essex Video) [1987г., Feature, Classic, AllSex, DP, Hairy, VHS2DVDRip] Marilyn Jess, Porsche Lynn и совсем молодой Rocc

salma3

7 | 2

699.08 МБ


Начать новую тему Ответить на тему  [ 1 сообщение ] 




Для Мосгорсуда, Роскомнадзора и рекламодателей:: mosgorsud-torrent[собачка]yandex.ru
cron