Торрент файл
скачать торрент магнет ссылка Добавлен: 12 янв 2013, 23:43
Размер: 2.98 ГБ
Сидеров: 7
Личеров: 5
Автор

СообщениеДобавлено: 12 янв 2013, 23:43 

Не в сети
Супермодератор
Аватара пользователя
Дата регистрации:
11 апр 2010, 18:10
Спасибо: 5996 / 7
Сообщения: 56684
id="p-25224744-1">Мартовские иды / The Ides of March
«Амбиции соблазняют. Власть развращает.»
Год выпуска: 2011
Страна: США
Жанр: драма
Продолжительность: 01:41:11
Перевод : профессиональный: многоголосый дублированный, многоголосый закадровый, одноголосый закадровый
Русские субтитры: есть
Режиссёр: Джордж Клуни / George Clooney
В ролях: Райан Гослинг, Джордж Клуни, Филип Сеймур Хоффман, Пол Джаматти, Мариса Томей, Джеффри Райт, Ивэн Рэйчел Вуд, Макс Мингелла, Дженнифер Эль, Грегори Итцин
Описание:
В фильме рассказывается об избирательной кампании Говарда Дина, проводившейся во время первичных выборов кандидата на пост президента США от демократической партии в 2004 году.

Качество: исходник BDRip 1080p
Формат: *.m4v
Видео кодек: H.264
Аудио кодек: ААС
Видео: 1280х534 / 3500 kbps / 23,976 fps
Аудио 1: русский / AAC 2.0 / 174 kbps / 48 kHz / Dub
Аудио 2: русский / AAC 2.0 / 178 kbps / 48 kHz / MVO Omikron
Аудио 3: украинский / AAC 2.0 / 179 kbps / 48 kHz / VO D.Stroev
Аудио 4: английский / AAC 2.0 / 172 kbps / 48 kHz / Original
Субтитры: русские, английские
Вшитая обложка: есть
Доп. теги (режиссёр, актёры и т.д.): прописаны
Главы: есть
MediaInfo
Общее
Полное имя : Z:\M4V\720p\The.Ides.of.March.2011.720p.Rus.Eng.m4v
Формат : MPEG-4
Идентификатор кодека : M4V
Размер файла : 2,98 Гбайт
Продолжительность : 1 ч. 41 м.
Режим общего битрейта : Переменный
Общий поток : 4220 Кбит/сек
Название фильма : Мартовские иды
Исполнитель : Джордж Клуни
Жанр : Drama
Дата записи : UTC 2011-08-31 07:00:00
Дата кодирования : UTC 2012-03-20 00:10:57
Дата пометки : UTC 2012-03-21 07:16:18
Обложка : Yes
Примечание : «Амбиции соблазняют. Власть развращает.»
iTunEXTC : mpaa|R|400|
iTunMOVI : <?xml version="1.0" encoding="UTF-8"?> / <!DOCTYPE plist PUBLIC "-/Apple/DTD PLIST 1.0/EN" "http://www.apple.com/DTDs/PropertyList-1.0.dtd"> / <plist version="1.0"> / <dict> / <key>cast</key> / <array> / <dict> / <key>name</key> / <string>Райан Гослинг</string> / </dict> / <dict> / <key>name</key> / <string>Джордж Клуни</string> / </dict> / <dict> / <key>name</key> / <string>Филип Сеймур Хоффман</string> / </dict> / <dict> / <key>name</key> / <string>Пол Джаматти</string> / </dict> / <dict> / <key>name</key> / <string>Мариса Томей</string> / </dict> / <dict> / <key>name</key> / <string>Джеффри Райт</string> / </dict> / <dict> / <key>name</key> / <string>Ивэн Рэйчел Вуд</string> / </dict> / <dict> / <key>name</key> / <string>Макс Мингелла</string> / </dict> / <dict> / <key>name</key> / <string>Дженнифер Эль</string> / </dict> / <dict> / <key>name</key> / <string>Грегори Итцин</string> / </dict> / </array> / <key>directors</key> / <array> / <dict> / <key>name</key> / <string>Джордж Клуни</string> / </dict> / </array> / <key>producers</key> / <array> / <dict> / <key>name</key> / <string>Джордж Клуни</string> / </dict> / <dict> / <key>name</key> / <string>Грант Хеслов</string> / </dict> / <dict> / <key>name</key> / <string>Брайан Оливер</string> / </dict> / </array> / <key>screenwriters</key> / <array> / <dict> / <key>name</key> / <string>Бо Уиллимон</string> / </dict> / <dict> / <key>name</key> / <string>Джордж Клуни</string> / </dict> / <dict> / <key>name</key> / <string>Грант Хеслов</string> / </dict> / </array> / </dict> / </plist>
desc : В фильме рассказывается об избирательной кампании Майка Морриса, проводившейся во время первичных выборов кандидата на пост президента США от демократической партии в 2004 году.
ldes : В фильме рассказывается об избирательной кампании Майка Морриса, проводившейся во время первичных выборов кандидата на пост президента США от демократической партии в 2004 году.
hdvd : 1
stik : 9
akID : -1
sfID : 0
cnID : 462482
xid : iPad:vendor_id:2011-462482
Видео
Идентификатор : 1
Формат : AVC
Формат/Информация : Advanced Video Codec
Профиль формата : [email protected]
Параметр CABAC формата : Да
Параметр ReFrames формата : 9 кадров
Идентификатор кодека : avc1
Идентификатор кодека/Информация : Advanced Video Coding
Продолжительность : 1 ч. 41 м.
Source_Duration/String : 1 ч. 41 м.
Битрейт : 3500 Кбит/сек
Максимальный битрейт : 14,7 Мбит/сек
Ширина : 1280 пикселей
Высота : 534 пикселя
Соотношение сторон : 2,40:1
Режим частоты кадров : Постоянный
Частота кадров : 23,976 кадра/сек
Цветовое пространство : YUV
Субдискретизация насыщенности : 4:2:0
Битовая глубина : 8 бит
Тип развёртки : Прогрессивная
Бит/(Пиксели*Кадры) : 0.214
Размер потока : 2,47 Гбайт (83%)
Source_StreamSize/String : 2,47 Гбайт
Заголовок : The.Ides.of.March.2011
Библиотека кодирования : x264 core 116 r2057 0ba8a9c
Настройки программы : cabac=1 / ref=9 / deblock=1:0:0 / analyse=0x3:0x133 / me=umh / subme=9 / psy=1 / psy_rd=1.00:0.00 / mixed_ref=1 / me_range=32 / chroma_me=1 / trellis=1 / 8x8dct=1 / cqm=0 / deadzone=21,11 / fast_pskip=1 / chroma_qp_offset=-2 / threads=12 / sliced_threads=0 / nr=0 / decimate=1 / interlaced=0 / bluray_compat=0 / constrained_intra=0 / bframes=9 / b_pyramid=2 / b_adapt=1 / b_bias=0 / direct=1 / weightb=1 / open_gop=0 / weightp=2 / keyint=250 / keyint_min=23 / scenecut=40 / intra_refresh=0 / rc_lookahead=40 / rc=2pass / mbtree=1 / bitrate=3500 / ratetol=1.0 / qcomp=0.60 / qpmin=0 / qpmax=69 / qpstep=4 / cplxblur=20.0 / qblur=0.5 / ip_ratio=1.40 / aq=1:1.00
Язык : English
Дата кодирования : UTC 2012-03-20 00:10:57
Дата пометки : UTC 2012-03-20 00:16:50
Source_Duration_LastFrame : 42
Аудио #1
Идентификатор : 2
Формат : AAC
Формат/Информация : Advanced Audio Codec
Профиль формата : LC
Идентификатор кодека : 40
Продолжительность : 1 ч. 41 м.
Вид битрейта : Переменный
Битрейт : 174 Кбит/сек
Максимальный битрейт : 240 Кбит/сек
Каналы : 2 канала
Расположение каналов : Front: L R
Частота : 48,0 КГц
Метод сжатия : С потерями
Размер потока : 126 Мбайт (4%)
Заголовок : DUB
Язык : Russian
Дата кодирования : UTC 2012-03-20 00:14:51
Дата пометки : UTC 2012-03-20 00:16:50
Аудио #2
Идентификатор : 3
Формат : AAC
Формат/Информация : Advanced Audio Codec
Профиль формата : LC
Идентификатор кодека : 40
Продолжительность : 1 ч. 41 м.
Вид битрейта : Переменный
Битрейт : 178 Кбит/сек
Максимальный битрейт : 237 Кбит/сек
Каналы : 2 канала
Расположение каналов : Front: L R
Частота : 48,0 КГц
Метод сжатия : С потерями
Размер потока : 129 Мбайт (4%)
Заголовок : MVO Omikron
Язык : Russian
Дата кодирования : UTC 2012-03-20 00:15:04
Дата пометки : UTC 2012-03-20 00:16:50
Аудио #3
Идентификатор : 4
Формат : AAC
Формат/Информация : Advanced Audio Codec
Профиль формата : LC
Идентификатор кодека : 40
Продолжительность : 1 ч. 41 м.
Вид битрейта : Переменный
Битрейт : 179 Кбит/сек
Максимальный битрейт : 232 Кбит/сек
Каналы : 2 канала
Расположение каналов : Front: L R
Частота : 48,0 КГц
Метод сжатия : С потерями
Размер потока : 129 Мбайт (4%)
Заголовок : VO D.Stroev
Язык : Russian
Дата кодирования : UTC 2012-03-20 00:15:55
Дата пометки : UTC 2012-03-20 00:16:50
Аудио #4
Идентификатор : 5
Формат : AAC
Формат/Информация : Advanced Audio Codec
Профиль формата : LC
Идентификатор кодека : 40
Продолжительность : 1 ч. 41 м.
Вид битрейта : Переменный
Битрейт : 172 Кбит/сек
Максимальный битрейт : 245 Кбит/сек
Каналы : 2 канала
Расположение каналов : Front: L R
Частота : 48,0 КГц
Метод сжатия : С потерями
Размер потока : 124 Мбайт (4%)
Заголовок : Original
Язык : English
Дата кодирования : UTC 2012-03-20 00:16:40
Дата пометки : UTC 2012-03-20 00:16:50
Текст #1
Идентификатор : 6
Формат : Timed text
Режим смешивания : sbtl
Идентификатор кодека : tx3g
Продолжительность : 1 ч. 34 м.
Вид битрейта : Переменный
Битрейт : 132 бит/сек
Размер потока : 91,5 Кбайт (0%)
Язык : Russian
Дата кодирования : UTC 2012-03-20 00:16:50
Дата пометки : UTC 2012-03-20 00:16:50
Текст #2
Идентификатор : 7
Формат : Timed text
Режим смешивания : sbtl
Идентификатор кодека : tx3g
Продолжительность : 1 ч. 34 м.
Вид битрейта : Переменный
Битрейт : 81 бит/сек
Размер потока : 56,4 Кбайт (0%)
Язык : English
Дата кодирования : UTC 2012-03-20 00:16:50
Дата пометки : UTC 2012-03-20 00:16:50
Текст #3
Идентификатор : 8
Формат : Apple text
Идентификатор кодека : text
Продолжительность : 1 ч. 41 м.
Вид битрейта : Переменный
Битрейт : 1 бит/сек
Размер потока : 423 байт (0%)
Дата кодирования : UTC 2012-03-21 00:22:40
Дата пометки : UTC 2012-03-21 00:22:40
x264.log
x264 [info]: frame I:1267 Avg QP:17.33 size: 90900
x264 [info]: frame P:80534 Avg QP:20.03 size: 23267
x264 [info]: frame B:63759 Avg QP:22.63 size: 10435
x264 [info]: consecutive B-frames: 25.6% 44.1% 13.8% 13.5% 2.9% 0.1% 0.0% 0.0% 0.0% 0.0%
x264 [info]: mb I I16..4: 14.9% 70.4% 14.7%
x264 [info]: mb P I16..4: 0.8% 9.1% 0.3% P16..4: 52.2% 16.8% 4.0% 0.4% 0.1% skip:16.2%
x264 [info]: mb B I16..4: 0.1% 2.8% 0.0% B16..8: 47.2% 7.4% 1.8% direct: 3.0% skip:37.7% L0:48.4% L1:46.6% BI: 5.0%
x264 [info]: 8x8 transform intra:87.6% inter:70.6%
x264 [info]: coded y,uvDC,uvAC intra: 91.9% 69.7% 36.3% inter: 26.9% 24.9% 1.1%
x264 [info]: i16 v,h,dc,p: 46% 15% 18% 21%
x264 [info]: i8 v,h,dc,ddl,ddr,vr,hd,vl,hu: 9% 5% 11% 11% 14% 14% 13% 11% 12%
x264 [info]: i4 v,h,dc,ddl,ddr,vr,hd,vl,hu: 18% 8% 5% 9% 13% 13% 12% 11% 11%
x264 [info]: i8c dc,h,v,p: 53% 21% 18% 8%
x264 [info]: Weighted P-Frames: Y:1.1% UV:0.4%
x264 [info]: ref P L0: 40.7% 8.0% 17.5% 8.4% 7.0% 5.7% 5.3% 2.9% 2.9% 1.5% 0.0%
x264 [info]: ref B L0: 57.2% 15.7% 10.1% 5.4% 4.4% 3.9% 3.0% 0.5%
x264 [info]: ref B L1: 93.2% 6.8%
x264 [info]: kb/s:3497.67
encoded 145560 frames, 12.83 fps, 3497.67 kb/s
Скриншоты
INFO &amp; Thx
Релиз от: by HANSMER
    Русский дубляж подогнан без перекодирования.
    За русский MVO DTS-HD МА - спасибо gelom, Merwos, NickAlex, MUSIC, Gercules, vanuuatuu, av161955, Scaramouche, dicka2000, tide, Loki1982, Kadilla, timur1965, PR, rumanceva, Skoped, balloo, rubak, TapaxTyH.
    Перевод Дениса Строева выкуплен на dvd100 участниками e180: Serene, Ramis, carnivale, anton966 и doc.logan
  • За русские субтитры - спасибо m0j0



Вернуться к началу
 Профиль Отправить личное сообщение  
 
   Похожие торренты   Автор   Торрент   Размер 
В этой теме нет новых непрочитанных сообщений. Мартовские иды / Последнее задание / Ides of March / Ultimate Target [боевик, триллер, криминал, 2000] DVDRip, Mvo [НТВ+]

salma3

0 | 0

1.36 ГБ

В этой теме нет новых непрочитанных сообщений. Эми Джордж / Amy George [драма, 2011] DVDRip-AVC, Avo

salma3

40 | 16

2.4 ГБ

В этой теме нет новых непрочитанных сообщений. Любопытный Джордж 3 / Curious George 3: Back to the Jungle (Фил Вайнштейн) [мультфильм, 2015] BDRip 720p, Dub [Чистый звук]

Dracon

150 | 46

3.38 ГБ

В этой теме нет новых непрочитанных сообщений. Джордж из джунглей / George of the Jungle [Боевик, мелодрама, комедия, 1997] WEB-DL 1080p, Mvo

salma3

0 | 1

10.21 ГБ

В этой теме нет новых непрочитанных сообщений. Легионеры / Иди вперед или умри / March or Die [драма, мелодрама, приключения, военный, 1977] BDRip 720p, Mvo+Dvo

salma3

146 | 27

5.51 ГБ

В этой теме нет новых непрочитанных сообщений. Любопытный Джордж 3 / Curious George 3: Back to the Jungle (Фил Вайнштейн) [мультфильм, 2015] HDRip, Dub [Чистый звук]

Dracon

207 | 21

1.37 ГБ

В этой теме нет новых непрочитанных сообщений. 28 панфиловцев [военный, драма, 2016] BDRip 720p, Dub [iPad] [Лицензия]

salma3

0 | 0

2.39 ГБ


Начать новую тему Ответить на тему  [ 1 сообщение ] 




Для Мосгорсуда, Роскомнадзора и рекламодателей:: mosgorsud-torrent[собачка]yandex.ru
cron