Торрент файл
скачать торрент магнет ссылка Добавлен: 12 янв 2013, 23:42
Размер: 5.44 ГБ
Сидеров: 11
Личеров: 5
Автор

СообщениеДобавлено: 12 янв 2013, 23:42 

Не в сети
Супермодератор
Аватара пользователя
Дата регистрации:
11 апр 2010, 18:10
Спасибо: 5995 / 7
Сообщения: 56684
id="p-25224744-1">Крестный отец 2 / The Godfather: Part II«The saga continues.»

Страна: США
Жанр: драма, криминал
Год выпуска: 1974
Продолжительность: 03:22:06
Перевод: Профессиональный (многоголосый закадровый)
Оригинальная аудиодорожка: английский
Режиссер: Френсис Форд Коппола
Сценарий: Френсис Форд Коппола, Марио Пьюзо
Продюсер: Френсис Форд Коппола, Грэй Фредериксон, Фред Роос
В ролях: Аль Пачино, Роберт Дюваль, Дайан Китон, Роберт Де Ниро, Джон Казале, Талия Шайр, Ли Страсберг, Майкл В. Гаццо, Г.Д. Спрэдлин, Ричард Брайт
Описание: В центре драмы представители нового поколения гангстерского клана — дона Корлеоне и его сына, для которых не существует моральных преград на пути достижения поставленых целей. Они превращают мафию, построенную по патриархальным, еще сицилийским законам, в весьма прагматичную, жесткую корпорацию, плавно интегрирующуюся в большой бизнес Америки..
Качество: BDRip
Исходник: BDRemux
Формат: m4v
Видео кодек: H.264
Аудио кодек: AAC
Видео: 1024х576, 3500 Kbps, 23,976 fps
Аудио RUS: 48 kHz, AAC, 2ch, 164 kbps - Профессиональный (многоголосый закадровый)
Аудио ENG: 48 kHz, AAC, 2ch, 180 kbps - Оригинал
MediaInfo
Код:
Код:
Полное имя : F:\рипы2\The Godfather Part II_new.m4v
Формат : MPEG-4
Идентификатор кодека : M4V
Размер файла : 5,44 Гбайт
Продолжительность : 3 ч. 22 м.
Общий поток : 3856 Кбит/сек
Название фильма : Крестный отец 2
Исполнитель : Francis Ford Coppola
Жанр : Drama
Дата записи : UTC 1974-12-20 08:00:00
Дата кодирования : UTC 2012-01-14 08:16:02
Дата пометки : UTC 2012-01-15 08:33:04
Обложка : Yes
desc : В центре драмы представители нового поколения гангстерского клана — дона Корлеоне и его сына, для которых не существует моральных преград на пути достижения поставленых целей.
ldes : В центре драмы представители нового поколения гангстерского клана — дона Корлеоне и его сына, для которых не существует моральных преград на пути достижения поставленых целей. Они превращают мафию, построенную по патриархальным, еще сицилийским законам, в весьма прагматичную, жесткую корпорацию, плавно интегрирующуюся в большой бизнес Америки.
hdvd : 1
stik : 9
cnID : 289039042
xid : iPad:vendor_id:1974-327
iTunEXTC : mpaa|R|400|
iTunMOVI : / / / / cast / / / name / Аль Пачино / / / name / Роберт Де Ниро / / / name / Дайан Китон / / / name / Роберт Дювалл / / / name / Джон Казале / / / name / Талия Шайр / / / name / Ли Страсберг / / / name / Майкл В. Гаццо / / / name / Г.Д. Спрэдлин / / / name / Ричард Брайт / / / directors / / / name / Френсис Форд Коппола / / / producers / / / name / Френсис Форд Коппола / / / name / Грэй Фредериксон / / / name / Фред Роос / / / screenwriters / / / name / Френсис Форд Коппола / / / name / Марио Пьюзо / / / /
Видео
Идентификатор : 1
Формат : AVC
Формат/Информация : Advanced Video Codec
Профиль формата : [email protected]
Параметр CABAC формата : Да
Параметр ReFrames формата : 9 кадры
Идентификатор кодека : avc1
Идентификатор кодека/Информация : Advanced Video Coding
Продолжительность : 3 ч. 22 м.
Вид битрейта : Переменный
Битрейт : 3500 Кбит/сек
Максимальный битрейт : 13,3 Мбит/сек
Ширина : 1024 пикс.
Высота : 576 пикс.
Соотношение сторон : 16:9
Режим частоты кадров : Переменный
Частота кадров : 23,976 кадр/сек
Минимальная частота кадров : 23,969 кадр/сек
Максимальная частота кадров : 24,038 кадр/сек
Цветовое пространство : YUV
Подвыборка цветности : 4:2:0
Битовая глубина : 8 бит
Тип развёртки : Прогрессивная
Бит/(Пиксели*Кадры) : 0.247
Размер потока : 4,94 Гбайт (91%)
Библиотека кодирования : x264 core 112
Настройки программы : cabac=1 / ref=9 / deblock=1:0:0 / analyse=0x3:0x113 / me=umh / subme=9 / psy=1 / psy_rd=1.00:0.00 / mixed_ref=1 / me_range=32 / chroma_me=1 / trellis=1 / 8x8dct=1 / cqm=0 / deadzone=21,11 / fast_pskip=1 / chroma_qp_offset=-2 / threads=3 / sliced_threads=0 / nr=0 / decimate=1 / interlaced=0 / constrained_intra=0 / bframes=9 / b_pyramid=2 / b_adapt=1 / b_bias=0 / direct=1 / weightb=1 / open_gop=0 / weightp=2 / keyint=240 / keyint_min=23 / scenecut=40 / intra_refresh=0 / rc_lookahead=40 / rc=2pass / mbtree=1 / bitrate=3500 / ratetol=1.0 / qcomp=0.60 / qpmin=3 / qpmax=51 / qpstep=4 / cplxblur=20.0 / qblur=0.5 / ip_ratio=1.40 / aq=1:1.00
Язык : English
Дата кодирования : UTC 2012-01-14 08:16:02
Дата пометки : UTC 2012-01-14 08:26:45
Основные цвета : BT.709-5, BT.1361, IEC 61966-2-4, SMPTE RP177
Характеристики трансфера : BT.709-5, BT.1361
Коэффициенты матрицы : BT.709-5, BT.1361, IEC 61966-2-4 709, SMPTE RP177
Аудио #1
Идентификатор : 2
Формат : AAC
Формат/Информация : Advanced Audio Codec
Профиль формата : LC
Идентификатор кодека : 40
Продолжительность : 3 ч. 21 м.
Вид битрейта : Переменный
Битрейт : 164 Кбит/сек
Максимальный битрейт : 230 Кбит/сек
Канал(ы) : 2 канала(ов)
Расположение каналов : Front: L R
Частота : 48,0 КГц
Метод сжатия : С потерями
Размер потока : 237 Мбайт (4%)
Заголовок : Russian stereo
Язык : Russian
Дата кодирования : UTC 2012-01-14 08:26:01
Дата пометки : UTC 2012-01-14 08:26:45
Аудио #2
Идентификатор : 3
Формат : AAC
Формат/Информация : Advanced Audio Codec
Профиль формата : LC
Идентификатор кодека : 40
Продолжительность : 3 ч. 22 м.
Вид битрейта : Переменный
Битрейт : 180 Кбит/сек
Максимальный битрейт : 233 Кбит/сек
Канал(ы) : 2 канала(ов)
Расположение каналов : Front: L R
Частота : 48,0 КГц
Метод сжатия : С потерями
Размер потока : 260 Мбайт (5%)
Заголовок : English stereo
Язык : English
Дата кодирования : UTC 2012-01-14 08:26:23
Дата пометки : UTC 2012-01-14 08:26:45

Log
Код:
Код:
x264 [info]: frame I:2234  Avg QP:16.90  size: 91485  PSNR Mean Y:46.28 U:48.13 V:48.19 Avg:46.75 Global:46.42
x264 [info]: frame P:163782 Avg QP:19.60  size: 23945  PSNR Mean Y:43.71 U:46.29 V:46.65 Avg:44.40 Global:44.13
x264 [info]: frame B:124726 Avg QP:21.85  size:  9443  PSNR Mean Y:42.70 U:47.07 V:46.60 Avg:43.45 Global:42.81
x264 [info]: consecutive B-frames: 26.4% 42.8% 19.1%  8.2%  1.4%  0.9%  0.4%  0.1%  0.0%  0.7%
x264 [info]: mb I  I16..4:  5.8% 80.2% 13.9%
x264 [info]: mb P  I16..4:  0.2%  2.8%  0.3%  P16..4: 44.2% 30.1% 18.6%  0.0%  0.0%    skip: 3.8%
x264 [info]: mb B  I16..4:  0.0%  0.5%  0.0%  B16..8: 44.9% 11.2%  3.0%  direct: 4.4%  skip:36.1%  L0:48.0% L1:44.9% BI: 7.1%
x264 [info]: 8x8 transform intra:84.7% inter:65.4%
x264 [info]: coded y,uvDC,uvAC intra: 94.8% 90.3% 74.5% inter: 41.9% 37.1% 6.5%
x264 [info]: i16 v,h,dc,p: 49% 15% 13% 23%
x264 [info]: i8 v,h,dc,ddl,ddr,vr,hd,vl,hu:  8%  6%  3% 12% 17% 15% 15% 12% 12%
x264 [info]: i4 v,h,dc,ddl,ddr,vr,hd,vl,hu:  9%  7%  2% 10% 16% 15% 15% 13% 14%
x264 [info]: i8c dc,h,v,p: 48% 18% 17% 17%
x264 [info]: Weighted P-Frames: Y:2.4% UV:1.2%
x264 [info]: ref P L0: 39.2%  8.8% 16.8%  8.3%  7.1%  5.8%  5.7%  3.1%  3.2%  1.9%  0.0%
x264 [info]: ref B L0: 54.8% 16.8%  9.4%  5.8%  4.5%  4.4%  3.5%  0.7%
x264 [info]: ref B L1: 94.4%  5.6%
x264 [info]: SSIM Mean Y:0.9693229 (15.132db)
x264 [info]: PSNR Mean Y:43.297 U:46.637 V:46.637 Avg:44.012 Global:43.525 kb/s:3499.13

Скриншоты
Для просмотра данного релиза на компьютере с ОС Windows рекомендуется использовать VLC media player



Вернуться к началу
 Профиль Отправить личное сообщение  
 
   Похожие торренты   Автор   Торрент   Размер 
В этой теме нет новых непрочитанных сообщений. Крестный отец 1,2,3 / The Godfather: Part I, II, III [Боевик, триллер, драма, криминал, 1972, 1974, 1990] BDRip, Dub+Sub [Нева Фильм]

salma3

23 | 7

6.56 ГБ

В этой теме нет новых непрочитанных сообщений. Крестный отец Гонконга / Jian dong xiao xiong [Боевик, 1985] DVDRip-AVC, Avo

salma3

67 | 5

2.13 ГБ

В этой теме нет новых непрочитанных сообщений. Спуск 2 / The Descent: Part 2 [Приключения, Триллер, Ужасы, 2009] BDRip 720p, Dub [iPad] [Лицензия]

salma3

19 | 7

2.1 ГБ

В этой теме нет новых непрочитанных сообщений. Выкуп / The Terrorists [триллер, драма, криминал, 1974] BDRip, Mvo

salma3

4 | 4

1.45 ГБ

В этой теме нет новых непрочитанных сообщений. Расплата / The Accountant (Боевик, триллер, драма, криминал, 2016) BDRip | iPad | iTunes

marya111

294 | 40

2.2 ГБ

В этой теме нет новых непрочитанных сообщений. Якудза / The Yakuza [боевик, триллер, драма, криминал, 1974] BDRip 720p, Dvo+Sub [НТВ]

salma3

75 | 56

6.71 ГБ

В этой теме нет новых непрочитанных сообщений. Шугарлендский экспресс / [драма, комедия, криминал, приключения, 1974] BDRip, Mvo [Лицензия]

salma3

90 | 10

1.45 ГБ


Начать новую тему Ответить на тему  [ 1 сообщение ] 




Для Мосгорсуда, Роскомнадзора и рекламодателей:: mosgorsud-torrent[собачка]yandex.ru
cron