Торрент файл
скачать торрент магнет ссылка Добавлен: 12 янв 2013, 23:42
Размер: 5.01 ГБ
Сидеров: 2
Личеров: 4
Автор

СообщениеДобавлено: 12 янв 2013, 23:42 

Не в сети
Супермодератор
Аватара пользователя
Дата регистрации:
11 апр 2010, 18:10
Спасибо: 5996 / 7
Сообщения: 56684
id="p-25224744-1">Крестный отец 3 / The Godfather: Part III«Настоящую власть никто не дает. Её нужно взять.»

Страна: США
Жанр: триллер, драма
Год выпуска: 1990
Продолжительность: 02:50:15
Перевод: Профессиональный (многоголосый закадровый)
Оригинальная аудиодорожка: английский
Режиссер: Френсис Форд Коппола
Сценарий: Марио Пьюзо, Френсис Форд Коппола
Продюсер: Френсис Форд Коппола, Грэй Фредериксон, Фред Фучс
В ролях: Аль Пачино, Дайан Китон, Талия Шайр, Энди Гарсиа, Эли Уоллах, Джо Мантенья, Джордж Хэмилтон, Бриджет Фонда, София Коппола, Раф Валлоне
Описание: Заключительная часть знаменитой гангстерской эпопеи, в которой продолжается рассказ о делах «семьи» дона Корлеоне. Через двадцать лет после событий, описанных в предыдущей картине, Майкл Корлеоне решает заняться легальным бизнесом. Однако противодействие внутри клана заставляет его вспомнить об испытанных кровавых методах общения с противником, что приводит к трагическому итогу.
Качество: BDRip
Исходник: BDRemux
Формат: m4v
Видео кодек: H.264
Аудио кодек: AAC
Видео: 1024х576, 3500 Kbps, 23,976 fps
Аудио RUS: 48 kHz, AAC, 2ch, 154 kbps - Профессиональный (многоголосый закадровый)(Позитив)
Аудио RUS: 48 kHz, AAC, 2ch, 183 kbps - Профессиональный (двухголосый закадровый)(Кравец)
Аудио RUS: 48 kHz, AAC, 2ch, 159 kbps - Профессиональный (Авторский)Юрий Живов
Аудио ENG: 48 kHz, AAC, 2ch, 192 kbps - Оригинал
MediaInfo
Код:
Код:
Полное имя : The Godfather Part III_new.m4v
Формат : MPEG-4
Идентификатор кодека : M4V
Размер файла : 5,01 Гбайт
Продолжительность : 2 ч. 50 м.
Общий поток : 4210 Кбит/сек
Название фильма : Крестный отец 3
Исполнитель : Francis Ford Coppola
Жанр : Drama
Дата записи : UTC 1990-12-25 08:00:00
Дата кодирования : UTC 2012-01-14 14:05:23
Дата пометки : UTC 2012-01-15 14:39:53
Обложка : Yes
desc : Заключительная часть знаменитой гангстерской эпопеи, в которой продолжается рассказ о делах «семьи» дона Корлеоне. Через двадцать лет после событий, описанных в предыдущей картине, Майкл Корлеоне решает заняться легальным бизнесом.
ldes : Заключительная часть знаменитой гангстерской эпопеи, в которой продолжается рассказ о делах «семьи» дона Корлеоне. Через двадцать лет после событий, описанных в предыдущей картине, Майкл Корлеоне решает заняться легальным бизнесом. Однако противодействие внутри клана заставляет его вспомнить об испытанных кровавых методах общения с противником, что приводит к трагическому итогу.
hdvd : 1
stik : 9
cnID : 288874574
xid : iPad:vendor_id:1990-4500
iTunEXTC : mpaa|R|400|
iTunMOVI : / / / / cast / / / name / Аль Пачино / / / name / Дайан Китон / / / name / Талия Шайр / / / name / Энди Гарсиа / / / name / Эли Уоллах / / / name / Джо Мантенья / / / name / Джордж Хэмилтон / / / name / Бриджит Фонда / / / name / София Коппола / / / name / Раф Валлоне / / / directors / / / name / Френсис Форд Коппола / / / producers / / / name / Френсис Форд Коппола / / / name / Грэй Фредериксон / / / name / Фред Фучс / / / screenwriters / / / name / Марио Пьюзо / / / name / Френсис Форд Коппола / / / /
Видео
Идентификатор : 1
Формат : AVC
Формат/Информация : Advanced Video Codec
Профиль формата : [email protected]
Параметр CABAC формата : Да
Параметр ReFrames формата : 9 кадры
Идентификатор кодека : avc1
Идентификатор кодека/Информация : Advanced Video Coding
Продолжительность : 2 ч. 50 м.
Вид битрейта : Переменный
Битрейт : 3500 Кбит/сек
Максимальный битрейт : 11,6 Мбит/сек
Ширина : 1024 пикс.
Высота : 576 пикс.
Соотношение сторон : 16:9
Режим частоты кадров : Переменный
Частота кадров : 23,976 кадр/сек
Минимальная частота кадров : 23,969 кадр/сек
Максимальная частота кадров : 24,038 кадр/сек
Цветовое пространство : YUV
Подвыборка цветности : 4:2:0
Битовая глубина : 8 бит
Тип развёртки : Прогрессивная
Бит/(Пиксели*Кадры) : 0.247
Размер потока : 4,16 Гбайт (83%)
Библиотека кодирования : x264 core 112
Настройки программы : cabac=1 / ref=9 / deblock=1:0:0 / analyse=0x3:0x113 / me=umh / subme=9 / psy=1 / psy_rd=1.00:0.00 / mixed_ref=1 / me_range=32 / chroma_me=1 / trellis=1 / 8x8dct=1 / cqm=0 / deadzone=21,11 / fast_pskip=1 / chroma_qp_offset=-2 / threads=3 / sliced_threads=0 / nr=0 / decimate=1 / interlaced=0 / constrained_intra=0 / bframes=9 / b_pyramid=2 / b_adapt=1 / b_bias=0 / direct=1 / weightb=1 / open_gop=0 / weightp=2 / keyint=240 / keyint_min=23 / scenecut=40 / intra_refresh=0 / rc_lookahead=40 / rc=2pass / mbtree=1 / bitrate=3500 / ratetol=1.0 / qcomp=0.60 / qpmin=3 / qpmax=51 / qpstep=4 / cplxblur=20.0 / qblur=0.5 / ip_ratio=1.40 / aq=1:1.00
Язык : English
Дата кодирования : UTC 2012-01-14 14:05:23
Дата пометки : UTC 2012-01-14 14:28:57
Основные цвета : BT.709-5, BT.1361, IEC 61966-2-4, SMPTE RP177
Характеристики трансфера : BT.709-5, BT.1361
Коэффициенты матрицы : BT.709-5, BT.1361, IEC 61966-2-4 709, SMPTE RP177
Аудио #1
Идентификатор : 2
Формат : AAC
Формат/Информация : Advanced Audio Codec
Профиль формата : LC
Идентификатор кодека : 40
Продолжительность : 2 ч. 50 м.
Вид битрейта : Переменный
Битрейт : 154 Кбит/сек
Максимальный битрейт : 215 Кбит/сек
Канал(ы) : 2 канала(ов)
Расположение каналов : Front: L R
Частота : 48,0 КГц
Метод сжатия : С потерями
Размер потока : 187 Мбайт (4%)
Заголовок : MVO (Pozitiv)
Язык : Russian
Дата кодирования : UTC 2012-01-14 14:27:09
Дата пометки : UTC 2012-01-14 14:28:57
Аудио #2
Идентификатор : 3
Формат : AAC
Формат/Информация : Advanced Audio Codec
Профиль формата : LC
Идентификатор кодека : 40
Продолжительность : 2 ч. 50 м.
Вид битрейта : Переменный
Битрейт : 183 Кбит/сек
Максимальный битрейт : 234 Кбит/сек
Канал(ы) : 2 канала(ов)
Расположение каналов : Front: L R
Частота : 48,0 КГц
Метод сжатия : С потерями
Размер потока : 223 Мбайт (4%)
Заголовок : DVO (Kravets)
Язык : Russian
Дата кодирования : UTC 2012-01-14 14:27:36
Дата пометки : UTC 2012-01-14 14:28:57
Аудио #3
Идентификатор : 4
Формат : AAC
Формат/Информация : Advanced Audio Codec
Профиль формата : LC
Идентификатор кодека : 40
Продолжительность : 2 ч. 50 м.
Вид битрейта : Переменный
Битрейт : 159 Кбит/сек
Максимальный битрейт : 223 Кбит/сек
Канал(ы) : 2 канала(ов)
Расположение каналов : Front: L R
Частота : 48,0 КГц
Метод сжатия : С потерями
Размер потока : 193 Мбайт (4%)
Заголовок : AVO (Zhivov)
Язык : Russian
Дата кодирования : UTC 2012-01-14 14:28:04
Дата пометки : UTC 2012-01-14 14:28:57
Аудио #4
Идентификатор : 5
Формат : AAC
Формат/Информация : Advanced Audio Codec
Профиль формата : LC
Идентификатор кодека : 40
Продолжительность : 2 ч. 50 м.
Вид битрейта : Переменный
Битрейт : 192 Кбит/сек
Максимальный битрейт : 239 Кбит/сек
Канал(ы) : 2 канала(ов)
Расположение каналов : Front: L R
Частота : 48,0 КГц
Метод сжатия : С потерями
Размер потока : 236 Мбайт (5%)
Заголовок : Original
Язык : English
Дата кодирования : UTC 2012-01-14 14:28:29
Дата пометки : UTC 2012-01-14 14:28:57

Log
Код:
Код:
x264 [info]: frame I:1933  Avg QP:16.18  size:101194  PSNR Mean Y:46.79 U:48.82 V:48.98 Avg:47.37 Global:46.93
x264 [info]: frame P:125434 Avg QP:19.09  size: 25498  PSNR Mean Y:43.80 U:47.08 V:47.13 Avg:44.63 Global:44.29
x264 [info]: frame B:117554 Avg QP:21.28  size:  9143  PSNR Mean Y:43.02 U:47.14 V:47.26 Avg:43.98 Global:43.06
x264 [info]: consecutive B-frames: 19.8% 43.9% 15.3% 15.8%  2.8%  0.6%  0.4%  0.1%  0.1%  1.3%
x264 [info]: mb I  I16..4:  9.0% 75.3% 15.8%
x264 [info]: mb P  I16..4:  0.2%  2.6%  0.3%  P16..4: 42.1% 30.6% 18.9%  0.0%  0.0%    skip: 5.3%
x264 [info]: mb B  I16..4:  0.0%  0.5%  0.0%  B16..8: 43.2% 11.6%  3.1%  direct: 3.6%  skip:37.9%  L0:50.2% L1:43.9% BI: 5.9%
x264 [info]: 8x8 transform intra:81.9% inter:62.7%
x264 [info]: coded y,uvDC,uvAC intra: 93.8% 85.7% 69.4% inter: 38.9% 32.2% 6.0%
x264 [info]: i16 v,h,dc,p: 51% 13% 14% 22%
x264 [info]: i8 v,h,dc,ddl,ddr,vr,hd,vl,hu:  8%  6%  4% 12% 16% 15% 15% 12% 12%
x264 [info]: i4 v,h,dc,ddl,ddr,vr,hd,vl,hu: 11%  8%  3%  9% 15% 14% 14% 12% 13%
x264 [info]: i8c dc,h,v,p: 49% 19% 18% 15%
x264 [info]: Weighted P-Frames: Y:1.9% UV:1.1%
x264 [info]: ref P L0: 38.8%  7.9% 17.5%  8.3%  7.6%  6.0%  5.9%  3.2%  3.3%  1.5%  0.0%
x264 [info]: ref B L0: 49.7% 17.1% 11.0%  6.9%  5.3%  5.2%  4.0%  0.7%
x264 [info]: ref B L1: 94.0%  6.0%
x264 [info]: SSIM Mean Y:0.9680580 (14.956db)
x264 [info]: PSNR Mean Y:43.451 U:47.122 V:47.208 Avg:44.341 Global:43.669 kb/s:3499.63

Скриншоты
Для просмотра данного релиза на компьютере с ОС Windows рекомендуется использовать VLC media player



Вернуться к началу
 Профиль Отправить личное сообщение  
 
   Похожие торренты   Автор   Торрент   Размер 
В этой теме нет новых непрочитанных сообщений. Крестный отец 1,2,3 / The Godfather: Part I, II, III [Боевик, триллер, драма, криминал, 1972, 1974, 1990] BDRip, Dub+Sub [Нева Фильм]

salma3

23 | 7

6.56 ГБ

В этой теме нет новых непрочитанных сообщений. Спуск 2 / The Descent: Part 2 [Приключения, Триллер, Ужасы, 2009] BDRip 720p, Dub [iPad] [Лицензия]

salma3

19 | 7

2.1 ГБ

В этой теме нет новых непрочитанных сообщений. Крестный отец Гонконга / Jian dong xiao xiong [Боевик, 1985] DVDRip-AVC, Avo

salma3

67 | 5

2.13 ГБ

В этой теме нет новых непрочитанных сообщений. Бугимен 2 / Boogeyman 2 [ужасы, триллер, драма, 2007] BDRip 720p, Dub [iPad]

salma3

0 | 0

1.67 ГБ

В этой теме нет новых непрочитанных сообщений. Союзники / Allied [боевик, триллер, драма, 2016] BDRip 720p [iPad] [Лицензия]

salma3

20 | 5

1.52 ГБ

В этой теме нет новых непрочитанных сообщений. Расплата / The Accountant (Боевик, триллер, драма, криминал, 2016) BDRip | iPad | iTunes

marya111

294 | 40

2.2 ГБ

В этой теме нет новых непрочитанных сообщений. Бугимен / Boogeyman [ужасы, триллер, драма, детектив, 2005] BDRip 720p, Dub [iPad]

salma3

0 | 0

2.12 ГБ


Начать новую тему Ответить на тему  [ 1 сообщение ] 




Для Мосгорсуда, Роскомнадзора и рекламодателей:: mosgorsud-torrent[собачка]yandex.ru
cron