Торрент файл
скачать торрент магнет ссылка Добавлен: 12 янв 2013, 23:42
Размер: 1.75 ГБ
Сидеров: 0
Личеров: 3
Автор

СообщениеДобавлено: 12 янв 2013, 23:42 

Не в сети
Супермодератор
Аватара пользователя
Дата регистрации:
11 апр 2010, 18:10
Спасибо: 5996 / 7
Сообщения: 56684
id="p-25224744-1">Откровения пирамид / La revelation des pyramides (The Revelation of the Pyramids)
«The discovery that changed the world»
Год выпуска: 2010
Страна: Франция
Студия: Ekwanim Productions, Kerguelen Productions, Gerard Fournerie, Felix Altmann Productions
Жанр: Документальный, научно-познавательный, естествознание
Продолжительность: 01:41:51
Перевод: Профессиональный (многоголосый закадровый)
Оригинальная аудиодорожка: есть
Cубтитры: нет
Режиссёр: Патрис Пуйар/ Patrice Pooyard
Сценарий: Патрис Пуйар
Продюссер: Филлипп Форнери
В ролях: Брайан Кокс
Описание:
Многие века тайны Великих Пирамид в Гизе будоражат умы людей. Сотни тысяч туристов со всего мира каждый год отправляются в Египет, чтобы увидеть Великого Сфинкса и Пирамиды Хеопса, Хефрена и Микерина. Путь создателей фильма пролег от Китая до Перу, от Египта до Мексики и от Ближнего Востока до острова Пасхи — по древнейшим, красивейшим и наиболее таинственным местам нашей планеты. Создатели этого документального блокбастера предлагают совершенно новую и непривычную для приверженцев традиционного академического подхода точку зрения на то, что являют собой Великие Пирамиды на самом деле.
Доп. информация:

Качество исходника: Blu-Ray - Откровения пирамид / La revelation des pyramides / 2009 / ПМ / Blu-Ray (1080i)
Качество: BDRip
Разрешение: 1024х544
Формат: MP4
Видео: H.264, 1 ,882:1 , 2200kbit/s; 23.976fps
Аудио 1: Russian/MVO, AAC, 125kbit/s; 2ch; 48KHz
Аудио 2: English/Original, AAC, 125kbit/s; 2ch; 48KHz
iTunes Meta Tags
Код:
XID:Apple:vendor_id:2010-652833
contentID: 452756605
Screenwriters: Патрис Пуйар, Olivier Krasker-Rosen, Jacques Grimault
Producers: Philippe Fournerie
Director: Патрис Пуйар
Cast:Брайан Кокс
Long Description: Многие века тайны Великих Пирамид в Гизе будоражат умы людей. Сотни тысяч туристов со всего мира каждый год отправляются в Египет, чтобы увидеть Великого Сфинкса и Пирамиды Хеопса, Хефрена и Микерина. Путь создателей фильма пролег от Китая до Перу, от Египта до Мексики и от Ближнего Востока до острова Пасхи — по древнейшим, красивейшим и наиболее таинственным местам нашей планеты. Создатели этого документального блокбастера предлагают совершенно новую и непривычную для приверженцев традиционного академического подхода точку зрения на то, что являют собой Великие Пирамиды на самом деле.
Description: Многие века тайны Великих Пирамид в Гизе будоражат умы людей. Сотни тысяч туристов со всего мира каждый год отправляются в Египет, чтобы увидеть Великого Сфинкса и Пирамиды Хеопса, Хефрена и Микерина.
Release Date: 2010-02-10T13:00:00Z
Genre: Documentary
Artist: Патрис Пуйар
Name:Откровения пирамид
MediaInfo
Код:
General
Complete name: /Users/imac/HandBrake/The Revelation of the Pyramids.2010.x264.BDRip.1024x.m4v
Format: MPEG-4
Codec ID: M4V
File size: 1.75 GiB
Duration: 1h 41mn
Overall bit rate mode: Variable
Overall bit rate: 2 459 Kbps
Movie name:Откровения пирамид
Performer: Патрис Пуйар
Genre: Documentary
Recorded date: UTC 2010-02-10 13:00:00
Encoded date: UTC 2013-01-08 11:07:42
Tagged date: UTC 2013-01-08 11:08:43
Cover: Yes
desc: Многие века тайны Великих Пирамид в Гизе будоражат умы людей. Сотни тысяч туристов со всего мира каждый год отправляются в Египет, чтобы увидеть Великого Сфинкса и Пирамиды Хеопса, Хефрена и Микерина.
ldes: Многие века тайны Великих Пирамид в Гизе будоражат умы людей. Сотни тысяч туристов со всего мира каждый год отправляются в Египет, чтобы увидеть Великого Сфинкса и Пирамиды Хеопса, Хефрена и Микерина. Путь создателей фильма пролег от Китая до Перу, от Египта до Мексики и от Ближнего Востока до острова Пасхи — по древнейшим, красивейшим и наиболее таинственным местам нашей планеты. Создатели этого документального блокбастера предлагают совершенно новую и непривычную для приверженцев традиционного академического подхода точку зрения на то, что являют собой Великие Пирамиды на самом деле.
stik: 9
rtng: 0
cnID: 452756605
xid:Apple:vendor_id:2010-652833
iTunMOVI: <?xml version="1.0" encoding="UTF-8"?> / <!DOCTYPE plist PUBLIC "-/Apple/DTD PLIST 1.0/EN" "http://www.apple.com/DTDs/PropertyList-1.0.dtd"> / <plist version="1.0"> / <dict> /<key>cast</key> /<array> /<dict> /<key>name</key> /<string> Брайан Кокс</string> /</dict> /</array> /<key>directors</key> /<array> /<dict> /<key>name</key> /<string>Патрис Пуйар</string> /</dict> /</array> /<key>producers</key> /<array> /<dict> /<key>name</key> /<string>Philippe Fournerie</string> /</dict> /</array> /<key>screenwriters</key> /<array> /<dict> /<key>name</key> /<string>Патрис Пуйар</string> /</dict> /<dict> /<key>name</key> /<string>Olivier Krasker-Rosen</string> /</dict> /<dict> /<key>name</key> /<string>Jacques Grimault</string> /</dict> /</array> / </dict> / </plist>
Video #1
ID: 1
Format: AVC
Format/Info: Advanced Video Codec
Format profile: [email protected]
Format settings, CABAC: Yes
Format settings, ReFrames: 9 frames
Codec ID: avc1
Codec ID/Info: Advanced Video Coding
Duration: 1h 41mn
Bit rate mode: Variable
Bit rate: 2 200 Kbps
Width: 1 024 pixels
Height: 544 pixels
Display aspect ratio: 1.882
Frame rate mode: Variable
Frame rate: 23.976 fps
Minimum frame rate: 23.974 fps
Maximum frame rate: 23.981 fps
Color space: YUV
Chroma subsampling: 4:2:0
Bit depth: 8 bits
Scan type: Progressive
Bits/(Pixel*Frame): 0.165
Stream size: 1.56 GiB (89%)
Writing library: x264 core 120
Encoding settings: cabac=1 / ref=9 / deblock=1:0:0 / analyse=0x3:0x113 / me=umh / subme=9 / psy=1 / psy_rd=1.00:0.00 / mixed_ref=1 / me_range=32 / chroma_me=1 / trellis=1 / 8x8dct=1 / cqm=0 / deadzone=21,11 / fast_pskip=1 / chroma_qp_offset=-2 / threads=12 / sliced_threads=0 / nr=0 / decimate=1 / interlaced=0 / bluray_compat=0 / constrained_intra=0 / bframes=6 / b_pyramid=2 / b_adapt=2 / b_bias=0 / direct=1 / weightb=1 / open_gop=0 / weightp=2 / keyint=240 / keyint_min=24 / scenecut=40 / intra_refresh=0 / rc_lookahead=40 / rc=2pass / mbtree=1 / bitrate=2200 / ratetol=1.0 / qcomp=0.60 / qpmin=3 / qpmax=69 / qpstep=4 / cplxblur=20.0 / qblur=0.5 / ip_ratio=1.40 / aq=1:1.00
Language: English
Encoded date: UTC 2013-01-08 11:07:43
Tagged date: UTC 2013-01-08 11:08:30
Color primaries: BT.709-5, BT.1361, IEC 61966-2-4, SMPTE RP177
Transfer characteristics: BT.709-5, BT.1361
Matrix coefficients: BT.709-5, BT.1361, IEC 61966-2-4 709, SMPTE RP177
Video #2
ID: 5
Format: JPEG
Codec ID: jpeg
Duration: 1h 41mn
Bit rate mode: Variable
Bit rate: 923 bps
Width: 640 pixels
Height: 340 pixels
Display aspect ratio: 1.882
Frame rate mode: Variable
Frame rate: 0.002 fps
Minimum frame rate: 0.001 fps
Maximum frame rate: 0.006 fps
Color space: YUV
Chroma subsampling: 4:2:0
Bit depth: 8 bits
Compression mode: Lossy
Bits/(Pixel*Frame): 2.121
Stream size: 676 KiB (0%)
Language: English
Encoded date: UTC 2013-01-08 11:08:43
Tagged date: UTC 2013-01-08 11:08:43
Audio #1
ID: 2
Format: AAC
Format/Info: Advanced Audio Codec
Format profile: LC
Codec ID: 40
Duration: 1h 41mn
Bit rate mode: Variable
Bit rate: 125 Kbps
Maximum bit rate: 187 Kbps
Channel(s): 2 channels
Channel positions: Front: L R
Sampling rate: 48.0 KHz
Compression mode: Lossy
Stream size: 91.1 MiB (5%)
Language: Russian
Encoded date: UTC 2013-01-08 11:07:43
Tagged date: UTC 2013-01-08 11:08:35
Audio #2
ID: 3
Format: AAC
Format/Info: Advanced Audio Codec
Format profile: LC
Codec ID: 40
Duration: 1h 41mn
Bit rate mode: Variable
Bit rate: 125 Kbps
Maximum bit rate: 187 Kbps
Channel(s): 2 channels
Channel positions: Front: L R
Sampling rate: 48.0 KHz
Compression mode: Lossy
Stream size: 91.3 MiB (5%)
Language: English
Encoded date: UTC 2013-01-08 11:07:43
Tagged date: UTC 2013-01-08 11:08:39
Text
ID: 4
Format: Apple text
Codec ID: text
Duration: 1h 41mn
Bit rate mode: Constant
Bit rate: 0 bps
Stream size: 288 Bytes (0%)
Language: English
Encoded date: UTC 2013-01-08 11:08:39
Tagged date: UTC 2013-01-08 11:08:39
Menu
00:00:00.000: Chapter 01
00:08:38.226: Chapter 02
00:18:47.793: Chapter 03
00:27:43.077: Chapter 04
00:39:46.341: Chapter 05
00:48:54.597: Chapter 06
00:56:52.657: Chapter 07
01:08:37.235: Chapter 08
01:16:45.889: Chapter 09
01:23:44.515: Chapter 10
01:32:09.019: Chapter 11
01:39:04.225: Chapter 12
x264 лог
Код:
x264 [info]: frame I:1133Avg QP:15.94size: 89952PSNR Mean Y:47.67 U:52.32 V:53.03 Avg:48.68 Global:48.04
x264 [info]: frame P:37081 Avg QP:18.64size: 23990PSNR Mean Y:46.20 U:50.93 V:51.69 Avg:47.22 Global:45.85
x264 [info]: frame B:108184 Avg QP:22.02size:6357PSNR Mean Y:44.17 U:49.90 V:50.55 Avg:45.35 Global:44.44
x264 [info]: consecutive B-frames:3.5%3.5%6.4% 48.8% 13.1% 16.2%8.5%
x264 [info]: mb II16..4: 12.3% 63.4% 24.2%
x264 [info]: mb PI16..4:3.8%9.9%1.8%P16..4: 36.0% 21.8% 13.6%0.0%0.0%skip:13.0%
x264 [info]: mb BI16..4:0.4%1.6%0.2%B16..8: 35.4%6.6%1.7%direct: 5.6%skip:48.4%L0:42.5% L1:47.1% BI:10.4%
x264 [info]: 8x8 transform intra:65.4% inter:67.2%
x264 [info]: coded y,uvDC,uvAC intra: 69.5% 58.6% 27.8% inter: 25.7% 20.5% 1.6%
x264 [info]: i16 v,h,dc,p: 52% 19%7% 23%
x264 [info]: i8 v,h,dc,ddl,ddr,vr,hd,vl,hu:8% 10%7%9% 14% 13% 15% 11% 14%
x264 [info]: i4 v,h,dc,ddl,ddr,vr,hd,vl,hu:9% 10%5%8% 14% 13% 15% 11% 15%
x264 [info]: i8c dc,h,v,p: 47% 28% 15%9%
x264 [info]: Weighted P-Frames: Y:14.6% UV:8.3%
x264 [info]: ref P L0: 47.4% 14.5% 17.4%5.9%4.9%3.2%3.0%1.6%1.7%0.2%0.0%
x264 [info]: ref B L0: 76.4% 11.3%5.1%2.6%1.9%1.6%0.9%0.3%
x264 [info]: ref B L1: 93.4%6.6%
x264 [info]: SSIM Mean Y:0.9825900 (17.592db)
x264 [info]: PSNR Mean Y:44.714 U:50.181 V:50.858 Avg:45.845 Global:44.773 kb/s:2200.05
Скриншоты



Вернуться к началу
 Профиль Отправить личное сообщение  
 
   Похожие торренты   Автор   Торрент   Размер 
В этой теме нет новых непрочитанных сообщений. Сайлент Хилл 2 / Silent Hill: Revelation 3D [ужасы, триллер, детектив, 2012] BDRip-AVC, Dub

salma3

48 | 20

2.18 ГБ

В этой теме нет новых непрочитанных сообщений. Сайлент Хилл 2 / Silent Hill: Revelation [Ужасы, триллер, детектив, 2012] BDRip 1080p, Dub [Open Matte] [Лицензия]

salma3

0 | 0

10.91 ГБ

В этой теме нет новых непрочитанных сообщений. Revelation [26.01.17] [MMORPG, Action, Adventure, 3rd Person, 2016] [Online-only]

vitalikmd

12 | 2

12.05 ГБ

В этой теме нет новых непрочитанных сообщений. Revelation: Зов Драконов [6.7.17] [Action, Симулятор, MMORPG, 2017] [Лицензия]

fiouyrt

0 | 1

15.96 ГБ

В этой теме нет новых непрочитанных сообщений. Страж тьмы / Revelation [Фэнтези, триллер, драма, приключения, 2001] DVDRip, Dvo

salma3

359 | 17

1.45 ГБ

В этой теме нет новых непрочитанных сообщений. Встречи с неведомым (1-16 серии из 16) / Freak Encounters (Джои Кейс) [2010, документальный, фантастика, научно-познавательный, SATRip] MVO

salma3

0 | 4

3.4 ГБ

В этой теме нет новых непрочитанных сообщений. Глиняная (Призрачная) армия Китая / National Geographic. China's Ghost Army (Стивен Тэллей) [2010, документальный, научно-познавательный, история, HDTVRip] DUB

salma3

0 | 0

677.33 МБ


Начать новую тему Ответить на тему  [ 1 сообщение ] 




Для Мосгорсуда, Роскомнадзора и рекламодателей:: mosgorsud-torrent[собачка]yandex.ru
cron