Торрент файл
скачать торрент магнет ссылка Добавлен: 12 янв 2013, 23:41
Размер: 1.06 ГБ
Сидеров: 1
Личеров: 3
Автор

СообщениеДобавлено: 12 янв 2013, 23:41 

Не в сети
Супермодератор
Аватара пользователя
Дата регистрации:
11 апр 2010, 18:10
Спасибо: 5995 / 7
Сообщения: 56685
id="p-25224744-1">Тихий дом / Silent House



Страна: США, Франция
Студия: Elle Driver, Tazora Films
Жанр: ужасы, триллер, драма
Год выпуска: 2011
Продолжительность: 01:25:53
Перевод: Любительский (многоголосый закадровый) RG Amigos & LeX
Cубтитры: русские, английские, английские SDH
Оригинальная аудиодорожка: английский
Режиссер: Крис Кентис, Лора Лау / Chris Kentis, Laura Lau
В ролях: Элизабет Олсен, Адам Трези, Эрик Шеффер Стивенс, Джулия Чан, Адам Барнетт, Хейли Мерфи
Описание: Отец и дочь-тинейджер получили работу по ремонту дома. Они решаются переночевать в старом жилище, а рано с утра приступить к работе. Но все пошло не так, когда девушка ночью стала слышать странные звуки с верхних этажей…
Качество: BDRip
Формат: m4v
Видео кодек: H.264
Аудио кодек: AAC
Видео: 1024x560, 1442 Kbps, 23.976 fps, [email protected]
Аудио Rus: 48 kHz, AAC, 2ch, 160 kbps
Аудио Eng: 48 kHz, AAC, 2ch, 161 kbps
Для модераторов
Видео с этого BDRemux хорошо жмется, не вижу причин раздувать битрейт, логи кодирования в подтверждение.
MI
Код:
Код:
Complete name : F:\Silent House.m4v
Format : MPEG-4
Codec ID : M4V
File size : 1.06 GiB
Duration : 1h 25mn
Overall bit rate mode : Variable
Overall bit rate : 1 772 Kbps
Movie name : Тихий дом
Performer : Крис Кентис, Лора Лау
Genre : Horror
Recorded date : UTC 2011-01-21 07:00:00
Encoded date : UTC 2012-07-27 17:29:01
Tagged date : UTC 2012-07-28 17:33:40
Cover : Yes
desc : Отец и дочь-тинейджер получили работу по реставрации дома. Они решаются переночевать в старом жилище, а рано с утра приступить к работе. Но все пошло не так, когда девушка ночью стала слышать странные звуки с верхних этажей…
ldes : Отец и дочь-тинейджер получили работу по реставрации дома. Они решаются переночевать в старом жилище, а рано с утра приступить к работе. Но все пошло не так, когда девушка ночью стала слышать странные звуки с верхних этажей…
hdvd : 1
stik : 9
rtng : 0
cnID : 519344043
xid : iPad:vendor_id:2011-572446
iTunEXTC : mpaa|R|400|
iTunMOVI : / / / / cast / / / name / Элизабет Олсен / / / name / Адам Трези / / / name / Эрик Шеффер Стивенс / / / name / Джулия Чан / / / name / Адам Барнетт / / / name / Хейли Мерфи / / / directors / / / name / Крис Кентис / / / name / Лора Лау / / / producers / / / name / Лора Лау / / / name / Агнес Ментрэ / / / screenwriters / / / name / Густаво Хернандез / / / name / Лора Лау / / / /
Video
ID : 1
Format : AVC
Format/Info : Advanced Video Codec
Format profile : [email protected]
Format settings, CABAC : Yes
Format settings, ReFrames : 9 frames
Codec ID : avc1
Codec ID/Info : Advanced Video Coding
Duration : 1h 25mn
Bit rate : 1 442 Kbps
Maximum bit rate : 8 629 Kbps
Width : 1 024 pixels
Height : 560 pixels
Display aspect ratio : 16:9
Frame rate mode : Variable
Frame rate : 23.976 fps
Minimum frame rate : 23.810 fps
Maximum frame rate : 24.390 fps
Color space : YUV
Chroma subsampling : 4:2:0
Bit depth : 8 bits
Scan type : Progressive
Bits/(Pixel*Frame) : 0.105
Stream size : 886 MiB (81%)
Writing library : x264 core 120
Encoding settings : cabac=1 / ref=9 / deblock=1:-2:-1 / analyse=0x3:0x133 / me=umh / subme=9 / psy=1 / psy_rd=0.80:0.05 / mixed_ref=1 / me_range=32 / chroma_me=1 / trellis=2 / 8x8dct=1 / cqm=0 / deadzone=21,11 / fast_pskip=1 / chroma_qp_offset=-3 / threads=3 / sliced_threads=0 / nr=0 / decimate=1 / interlaced=0 / bluray_compat=0 / constrained_intra=0 / bframes=8 / b_pyramid=2 / b_adapt=2 / b_bias=0 / direct=3 / weightb=1 / open_gop=0 / weightp=2 / keyint=240 / keyint_min=24 / scenecut=40 / intra_refresh=0 / rc=crf / mbtree=0 / crf=19.0 / qcomp=0.70 / qpmin=3 / qpmax=69 / qpstep=4 / ip_ratio=1.30 / pb_ratio=1.20 / aq=2:0.90
Language : English
Encoded date : UTC 2012-07-27 17:29:01
Tagged date : UTC 2012-07-27 17:31:08
Color primaries : BT.709-5, BT.1361, IEC 61966-2-4, SMPTE RP177
Transfer characteristics : BT.709-5, BT.1361
Matrix coefficients : BT.709-5, BT.1361, IEC 61966-2-4 709, SMPTE RP177
Audio #1
ID : 2
Format : AAC
Format/Info : Advanced Audio Codec
Format profile : LC
Codec ID : 40
Duration : 1h 25mn
Bit rate mode : Variable
Bit rate : 160 Kbps
Maximum bit rate : 215 Kbps
Channel(s) : 2 channels
Channel positions : Front: L R
Sampling rate : 48.0 KHz
Compression mode : Lossy
Stream size : 98.2 MiB (9%)
Language : Russian
Encoded date : UTC 2012-07-27 17:30:49
Tagged date : UTC 2012-07-27 17:31:08
Audio #2
ID : 3
Format : AAC
Format/Info : Advanced Audio Codec
Format profile : LC
Codec ID : 40
Duration : 1h 25mn
Bit rate mode : Variable
Bit rate : 161 Kbps
Maximum bit rate : 204 Kbps
Channel(s) : 2 channels
Channel positions : Front: L R
Sampling rate : 48.0 KHz
Compression mode : Lossy
Stream size : 99.0 MiB (9%)
Language : English
Encoded date : UTC 2012-07-27 17:30:58
Tagged date : UTC 2012-07-27 17:31:08
Text #1
ID : 4
Format : Timed text
Muxing mode : sbtl
Codec ID : tx3g
Duration : 1h 18mn
Bit rate mode : Variable
Bit rate : 39 bps
Stream size : 22.7 KiB (0%)
Language : Russian
Encoded date : UTC 2012-07-27 17:31:07
Tagged date : UTC 2012-07-27 17:31:08
Text #2
ID : 5
Format : Timed text
Muxing mode : sbtl
Codec ID : tx3g
Duration : 1h 18mn
Bit rate mode : Variable
Bit rate : 25 bps
Stream size : 14.4 KiB (0%)
Language : English
Encoded date : UTC 2012-07-27 17:31:07
Tagged date : UTC 2012-07-27 17:31:08
Text #3
ID : 6
Format : Timed text
Muxing mode : sbtl
Codec ID : tx3g
Duration : 1h 19mn
Bit rate mode : Variable
Bit rate : 30 bps
Stream size : 17.7 KiB (0%)
Language : English
Encoded date : UTC 2012-07-27 17:31:07
Tagged date : UTC 2012-07-27 17:31:08
Text #4
ID : 7
Format : Apple text
Codec ID : text
Duration : 1h 25mn
Bit rate mode : Constant
Bit rate : 1 bps
Stream size : 480 Bytes (0%)
Encoded date : UTC 2012-07-28 17:33:16
Tagged date : UTC 2012-07-28 17:33:16

x264 log
x264 [info]: frame I:519 Avg QP:13.89 size: 30854 PSNR Mean Y:51.97 U:54.82 V:54.53 Avg:52.60 Global:51.19
x264 [info]: frame P:26795 Avg QP:14.98 size: 14308 PSNR Mean Y:52.12 U:55.25 V:54.61 Avg:52.60 Global:50.16
x264 [info]: frame B:96238 Avg QP:16.95 size: 5502 PSNR Mean Y:49.76 U:53.24 V:52.63 Avg:50.48 Global:49.33
x264 [info]: consecutive B-frames: 2.4% 1.9% 9.5% 14.4% 14.5% 46.0% 5.0% 3.6% 2.8%
x264 [info]: mb I I16..4: 23.5% 62.9% 13.6%
x264 [info]: mb P I16..4: 3.6% 10.7% 1.0% P16..4: 43.8% 16.2% 8.7% 0.2% 0.0% skip:15.8%
x264 [info]: mb B I16..4: 0.2% 0.6% 0.1% B16..8: 40.4% 7.2% 1.2% direct: 6.0% skip:44.4% L0:45.3% L1:47.1% BI: 7.6%
x264 [info]: 8x8 transform intra:69.1% inter:65.2%
x264 [info]: direct mvs spatial:100.0% temporal:0.0%
x264 [info]: coded y,uvDC,uvAC intra: 66.8% 73.4% 51.1% inter: 15.4% 21.0% 1.9%
x264 [info]: i16 v,h,dc,p: 28% 10% 10% 52%
x264 [info]: i8 v,h,dc,ddl,ddr,vr,hd,vl,hu: 11% 7% 6% 10% 14% 14% 13% 13% 13%
x264 [info]: i4 v,h,dc,ddl,ddr,vr,hd,vl,hu: 9% 5% 6% 12% 17% 14% 14% 11% 12%
x264 [info]: i8c dc,h,v,p: 42% 27% 18% 13%
x264 [info]: Weighted P-Frames: Y:18.3% UV:8.5%
x264 [info]: ref P L0: 44.2% 5.5% 19.4% 8.6% 6.5% 5.0% 4.6% 2.7% 2.6% 0.7% 0.1%
x264 [info]: ref B L0: 73.3% 12.2% 6.1% 3.1% 2.1% 1.7% 1.2% 0.4%
x264 [info]: ref B L1: 92.4% 7.6%
x264 [info]: SSIM Mean Y:0.9900569 (20.025db)
x264 [info]: PSNR Mean Y:50.278 U:53.680 V:53.063 Avg:50.948 Global:49.504 kb/s:1442.03
Скриншоты



Вернуться к началу
 Профиль Отправить личное сообщение  
 
   Похожие торренты   Автор   Торрент   Размер 
В этой теме нет новых непрочитанных сообщений. Тихий приют / Silent Retreat [ужасы, триллер, детектив, 2016] HDRip, Avo

salma3

0 | 0

1.45 ГБ

В этой теме нет новых непрочитанных сообщений. Бугимен 2 / Boogeyman 2 [ужасы, триллер, драма, 2007] BDRip 720p, Dub [iPad]

salma3

0 | 0

1.67 ГБ

В этой теме нет новых непрочитанных сообщений. Бугимен / Boogeyman [ужасы, триллер, драма, детектив, 2005] BDRip 720p, Dub [iPad]

salma3

0 | 0

2.12 ГБ

В этой теме нет новых непрочитанных сообщений. Новая эра Z / The Girl with All the Gifts [ужасы, триллер, драма, 2016] BDRip 720p, Dub [iPad] [Лицензия]

salma3

0 | 0

2.14 ГБ

В этой теме нет новых непрочитанных сообщений. Анаконда: Тихий убийца / National Geographic. Anaconda: Silent Killer [документальный, 2015] HDTVRip 720p, Avo

salma3

11 | 5

4.75 ГБ

В этой теме нет новых непрочитанных сообщений. Тихий час / The Quiet Hour [фантастика, триллер, драма, 2014] BDRip, Mvo

salma3

211 | 65

1.45 ГБ

В этой теме нет новых непрочитанных сообщений. Сайлент Хилл 2 / Silent Hill: Revelation 3D [ужасы, триллер, детектив, 2012] BDRip-AVC, Dub

salma3

48 | 20

2.18 ГБ


Начать новую тему Ответить на тему  [ 1 сообщение ] 




Для Мосгорсуда, Роскомнадзора и рекламодателей:: mosgorsud-torrent[собачка]yandex.ru
cron