Торрент файл
скачать торрент магнет ссылка Добавлен: 12 янв 2013, 23:40
Размер: 842.58 МБ
Сидеров: 1
Личеров: 3
Автор

СообщениеДобавлено: 12 янв 2013, 23:40 

Не в сети
Супермодератор
Аватара пользователя
Дата регистрации:
11 апр 2010, 18:10
Спасибо: 5995 / 7
Сообщения: 56684
id="p-25224744-1">Страна:
Год выпуска: 1993
Жанр: Триллер/Драма/Криминал
Продолжительность: 02:12:24
Качество/Исходник: HDTVRip
Перевод: Полный дубляж
Звуковые дорожки/Количество: Русская - Дубляж/ Английская - оригинальная
Тэги/ Tags: Прописаны
Субтитры: Русские/ Английские - ( "мягкие" ) отключаемые
8.232
7.3/10
«PG - 13» - Детям до 13 лет просмотр не желателен
Режиссер:

Клинт Иствуд/ Clint Eastwood
В ролях:
Kevin Costner/ Кевин Костнер — Роберт «Мачо» Хейнс (дубл. Владимир Вихров)
Clint Eastwood/ Клинт Иствуд — капитан Ред Гарнетт (дубл. Виктор Петров)
Laura Dern/ Лора Дерн — Салли Гербер (дубл. Любовь Германова)
T.J. Lowther/ Т.Дж. Лоутер — Филип Перри (дубл. Дмитрий Полонский)
Jennifer Griffin/ Дженнифер Гриффин — Глэдис Перри (дубл. Светлана Харлап)
Keith Szarabajka/ Кейт Царабайка — Терри Пью
Leo Burmester/ Лео Бурместер — Том Адлер
Paul Hewitt/ Пол Хьюитт — Дик Саттл
Bradley Whitford/ Брэдли Уитфорд — Бобби Ли
Ray McKinnon/ Рэй МакКиннон — Брэдли
Darryl Cox/ Дэррил Кокс — мистер Хьюз
Jay Whiteaker/ Джэй Уитакер — супермен
Описание:[font='Comic Sans MS']«Идеальный мир»[/font] — фильм режиссёра Клинта Иствуда 1993 года.
Не рекомендуется просмотр детям и подросткам моложе 16 лет.Фильм занимает 150 - е место в списке 250 лучших фильмов по версии Действие фильма разворачивается в Техасе осенью 1963 года.
Роберт «Мачо» Хейнс (Кевин Костнер) и Терри Пью (Кейт Царабайка) — преступники, только что сбежавшие из тюрьмы Хантсвилла.
Скрываясь от преследования, они проникают в кухню дома, в котором живёт восьмилетний Филип Перри (Т.Дж. Лоутер) со своей матерью одиночкой и двумя сёстрами...
Поскольку Хейнсу и Терри для побега нужны заложники, они ...
... забирают мальчика, который безропотно им подчиняется.
Совместное путешествие троицы начинается с неприятной ноты, так как из-за приставаний Терри к мальчику, Хейнс вынужден избавиться от своего напарника.
После этого он и его жертва направляются к Техасскому шоссе в попытке уйти от полиции...
Преступника упорно преследует техасский рейнджер Ред Гарнетт (Клинт Иствуд), находящийся за рулём сверкающего обтекаемого губернаторского трейлера. На буксире у него находятся криминолог Салли Гербер (Лора Дерн) и агрессивный агент ФБР, меткий стрелок, Бобби Ли (Брэдли Уитфорд).
О фильме
Интересные факты
_______
    Песня «Море несчастья», звучащая в фильме, была также использована в другом фильме Иствуда — «Перевал разбитых сердец»
    Фото на плакате к фильму не является кадром из самого фильма. В фильме Филип всегда одет необычно — вначале в нижнем белье, затем в костюме Каспера.
    В биллинге к фильму Кевин Костнер указан выше Клинта Иствуда. Таким образом, это первый фильм со времен «Раскрась свой фургон» (1969), в котором Иствуд находится не на первой строке биллинга.[1]
  • На роль Хейнса Иствуд первоначально планировал взять Дензела Вашингтона.
Вид данного материала в iTunes
Как включить субтитры - звуковые дорожки
Тех. данные
General
Complete name : Идеальный мир.m4v
Format : MPEG-4
Codec ID : M4V
File size : 843 MiB
Duration : 2h 12mn
Overall bit rate : 890 Kbps
Movie name : Идеальный мир
Genre : Thriller
Encoded date : 1993.11.24
Tagged date : UTC 2010-06-23 23:02:11
Cover : Yes
iTunEXTC : mpaa|PG-13|300|
iTunMOVI : <?xml version="1.0" encoding="UTF-8"?> / <!DOCTYPE plist PUBLIC "-/Apple/DTD PLIST 1.0/EN" "http://www.apple.com/DTDs/PropertyList-1.0.dtd"> / <plist version="1.0"> / <dict> / <key>cast</key> / <array> / <dict> / <key>name</key> / <string>Кевин Костнер</string> / </dict> / <dict> / <key>name</key> / <string>Клинт Иствуд</string> / </dict> / <dict> / <key>name</key> / <string>Лора Дерн</string> / </dict> / <dict> / <key>name</key> / <string>Т. Дж. Лоузер</string> / </dict> / <dict> / <key>name</key> / <string>Кит Шарабайка</string> / </dict> / <dict> / <key>name</key> / <string>Лео Бёрместер</string> / </dict> / <dict> / <key>name</key> / <string>Пол Хьюит</string> / </dict> / <dict> / <key>name</key> / <string>Брэдли Уитфорд</string> / </dict> / <dict> / <key>name</key> / <string>Рэй МакКиннон</string> / </dict> / <dict> / <key>name</key> / <string>Дженнифер Гриффин</string> / </dict> / </array> / <key>directors</key> / <array> / <dict> / <key>name</key> / <string>Клинт Иствуд</string> / </dict> / <dict> / <key>name</key> / <string>Марк Джонсон</string> / </dict> / <dict> / <key>name</key> / <string>Дэвид Валдес</string> / </dict> / </array> / <key>producers</key> / <array> / <dict> / <key>name</key> / <string>Клинт Иствуд</string> / </dict> / <dict> / <key>name</key> / <string>Марк Джонсон</string> / </dict> / <dict> / <key>name</key> / <string>Дэвид Валдес</string> / </dict> / </array> / <key>screenwriters</key> / <array> / <dict> / <key>name</key> / <string>Джек Н. Грин</string> / </dict> / </array> / </dict> / </plist>
ldes : Батч Хейнс — закаленный жизнью преступник, бежавший вместе с юным заложником, видящим в Батче отца, которого у него никогда не было. Ред Гарнетт — хитрый техасский рейнджер, предводитель шерифов. Ему знакомы каждая тропинка и укрытие. И более того — ему знаком и неуловимый Хейнс, ведь их пути уже пересекались однажды.
stik : 9
Video
ID : 1
Format : AVC
Format/Info : Advanced Video Codec
Format profile : [email protected]
Format settings, CABAC : No
Format settings, ReFrames : 6 frames
Codec ID : avc1
Codec ID/Info : Advanced Video Coding
Duration : 2h 12mn
Bit rate mode : Variable
Bit rate : 623 Kbps
Maximum bit rate : 2 102 Kbps
Width : 480 pixels
Height : 208 pixels
Display aspect ratio : 2.35:1
Frame rate mode : Constant
Frame rate : 25.000 fps
Resolution : 8 bits
Colorimetry : 4:2:0
Scan type : Progressive
Bits/(Pixel*Frame) : 0.250
Stream size : 590 MiB (70%)
Writing library : x264 core 65 r999kMod cc51047
Encoding settings : cabac=0 / ref=6 / deblock=1:0:0 / analyse=0x1:0x131 / me=umh / subme=6 / psy_rd=1.0:0.0 / mixed_ref=1 / me_range=16 / chroma_me=1 / trellis=0 / 8x8dct=0 / cqm=0 / deadzone=21,11 / chroma_qp_offset=-2 / threads=2 / thread_queue=2 / nr=0 / decimate=1 / mbaff=0 / bframes=0 / keyint=250 / keyint_min=25 / scenecut=40(pre) / rc=2pass / bitrate=623 / ratetol=1.0 / qcomp=0.60 / qpmin=10 / qpmax=51 / qpstep=4 / cplxblur=20.0 / qblur=0.5 / ip_ratio=1.40 / aq=1:1.00
Encoded date : UTC 2010-06-22 18:43:27
Tagged date : UTC 2010-06-22 22:43:14
Audio #1
ID : 2
Format : AAC
Format/Info : Advanced Audio Codec
Format version : Version 4
Format profile : LC
Format settings, SBR : No
Codec ID : 40
Duration : 2h 12mn
Bit rate mode : Variable
Bit rate : 128 Kbps
Maximum bit rate : 157 Kbps
Channel(s) : 2 channels
Channel positions : Front: L R
Sampling rate : 48.0 KHz
Stream size : 122 MiB (14%)
Language : Russian
Encoded date : UTC 2010-06-22 22:41:45
Tagged date : UTC 2010-06-22 22:43:14
Audio #2
ID : 3
Format : AAC
Format/Info : Advanced Audio Codec
Format version : Version 4
Format profile : LC
Format settings, SBR : No
Codec ID : 40
Duration : 2h 12mn
Bit rate mode : Variable
Bit rate : 129 Kbps
Maximum bit rate : 146 Kbps
Channel(s) : 2 channels
Channel positions : Front: L R
Sampling rate : 48.0 KHz
Stream size : 122 MiB (14%)
Language : English
Encoded date : UTC 2010-06-22 22:42:33
Tagged date : UTC 2010-06-22 22:43:14
Text #1
ID : 4
Format : Timed text
Muxing mode : sbtl
Codec ID : tx3g
Duration : 2h 6mn
Bit rate mode : Variable
Bit rate : 85 bps
Stream size : 78.4 KiB (0%)
Language : Russian
Encoded date : UTC 2010-06-22 22:43:14
Tagged date : UTC 2010-06-22 22:43:14
Text #2
ID : 5
Format : Timed text
Muxing mode : sbtl
Codec ID : tx3g
Duration : 2h 6mn
Bit rate mode : Variable
Bit rate : 49 bps
Stream size : 45.3 KiB (0%)
Language : English
Encoded date : UTC 2010-06-22 22:43:14
Tagged date : UTC 2010-06-22 22:43:14
Формат: Mp4
Видео кодек: H.264/M4V
Аудио кодек: AAC
Видео: 480x208 (2.35:1), 623 Kbps, 25.000 fps
Аудио: AAC LC, Variable, 128 Kbps, 2 channels
Русские субтитры (отключаемые): Text 3GPP
Английские субтитры (отключаемые): Text 3GPP
Русская дорожка: AAC LC - 2h 12 mn - 128 Kbps - 2 Ch - 48KHz
Английская дорожка: AAC LC - 2h 12 mn - 129 Kbps - 2 Ch - 48KHz



Вернуться к началу
 Профиль Отправить личное сообщение  
 
   Похожие торренты   Автор   Торрент   Размер 
В этой теме нет новых непрочитанных сообщений. Совершенный мир / A Perfect World [Триллер, драма, криминал, 1993] HDRip-AVC, Mvo

salma3

5 | 1

745.98 МБ

В этой теме нет новых непрочитанных сообщений. Perfect Gonzo's Best Of Ass Traffic / Совершенный Гонзо, Лучший Жопный Трафик (Perfect Gonzo) [2017 г., Gonzo, Anal, DP, DVDRip]

salma3

38 | 13

3.96 ГБ

В этой теме нет новых непрочитанных сообщений. Идеальное алиби / Perfect Alibi [триллер, драма, криминал, 1995] DVDRip, Avo

salma3

0 | 0

1.37 ГБ

В этой теме нет новых непрочитанных сообщений. Любимый учитель / The Perfect Teacher [триллер, драма, криминал, 2010] BDRip 1080p, Mvo

salma3

46 | 13

7.42 ГБ

В этой теме нет новых непрочитанных сообщений. Идеальный незнакомец / Perfect Stranger [триллер, драма, криминал, 2007] BDRemux 1080p, Dub

salma3

0 | 0

19.2 ГБ

В этой теме нет новых непрочитанных сообщений. Снайпер / Sniper [боевик, триллер, драма, 1993] HDTVRip 720p, Mvo

salma3

0 | 0

4.89 ГБ

В этой теме нет новых непрочитанных сообщений. С меня хватит! / Falling Down [триллер, драма, криминал, 1993] HDRip-AVC, Mvo

salma3

63 | 14

745.88 МБ


Начать новую тему Ответить на тему  [ 1 сообщение ] 




Для Мосгорсуда, Роскомнадзора и рекламодателей:: mosgorsud-torrent[собачка]yandex.ru
cron