Торрент файл
скачать торрент магнет ссылка Добавлен: 12 янв 2013, 23:40
Размер: 2.12 ГБ
Сидеров: 5
Личеров: 5
Автор

СообщениеДобавлено: 12 янв 2013, 23:40 

Не в сети
Супермодератор
Аватара пользователя
Дата регистрации:
11 апр 2010, 18:10
Спасибо: 5995 / 7
Сообщения: 56685
id="p-25224744-1">Золотой Компас / The Golden Compass«За пределами нашего мира есть и другие. Компас укажет дорогу.»

Год выпуска: 2007
Страна: США, Великобритания
Жанр: сказка, фэнтези, приключения
Продолжительность: 01:53:17
Перевод: профессиональный (полное дублирование)
Русские субтитры: есть
Навигация по главам: есть

Режиссер: Крис Вейц / Chris Weitz

В ролях: Николь Кидман, Дэниэл Крэйг, Дакота Блю Ричардс, Бен Уолкер, Фредди Хаймор, Иэн МакКеллен, Ева Грин, Джим Картер, Том Кортни, Йен МакШейн

Описание:
Двенадцатилетняя Лира отправляется в удивительное путешествие к Северному Полюсу, чтобы спасти своего похищенного друга. В помощь к девочке приходят северные ведьмы под предводительством прекрасной Серафины Пеккала и огромный бронированный медведь. На пути их стоят зловещая Миссис Коултер и армия её монстров.

Качество: BDRip Исходник: (BD Remux)
Формат: m4v
Видео кодек: H.264
Аудио кодек: AAC
Видео: 1280x536, 2329Kbps, 23,976 fps
Аудио RUS: 48 kHz, AAC, 2ch, 170kbps - Дубляж
Аудио ENG: 48 kHz, AAC, 2ch, 170kbps - Оригинал
MediaInfo
Код:
Код:
Полное имя : The Golden Compass.m4v
Формат : MPEG-4
Идентификатор кодека : M4V
Размер файла : 2,12 Гбайт
Продолжительность : 1 ч. 53 м.
Общий поток : 2677 Кбит/сек
Название фильма : The Golden Compass
Исполнитель : Chris Weitz
Жанр : Action & Adventure
Дата записи : 2008-04-29T07:00:00Z
Обложка : Yes
desc : Двенадцатилетняя Лира отправляется в удивительное путешествие к Северному Полюсу, чтобы спасти своего похищенного друга.
ldes : Двенадцатилетняя Лира отправляется в удивительное путешествие к Северному Полюсу, чтобы спасти своего похищенного друга. В помощь к девочке приходят северные ведьмы под предводительством прекрасной Серафины Пеккала и огромный бронированный медведь
hdvd : 1
stik : 9
cnID : 292215254
xid : iPad:vendor_id:2007-91843
iTunEXTC : mpaa|PG|200|
iTunMOVI : / / / / cast / / / name / Николь Кидман / / / name / Дэниэл Крэйг / / / name / Дакота Блю Ричардс / / / name / Бен Уолкер / / / name / Фредди Хаймор / / / name / Иэн МакКеллен / / / name / Ева Грин / / / name / Джим Картер / / / name / Том Кортни / / / name / Йен МакШейн / / / directors / / / name / Крис Вайц / / / producers / / / name / Билл Карраро / / / name / Пол Вайц / / / name / Тоби Эммерих / / / screenwriters / / / name / Крис Вайц / / / name / Филип Пуллман / / / /
Видео
Идентификатор : 1
Формат : AVC
Формат/Информация : Advanced Video Codec
Профиль формата : [email protected]
Параметр CABAC формата : Да
Параметр ReFrames формата : 9 кадры
Идентификатор кодека : avc1
Идентификатор кодека/Информация : Advanced Video Coding
Продолжительность : 1 ч. 53 м.
Вид битрейта : Переменный
Битрейт : 2329 Кбит/сек
Максимальный битрейт : 25,7 Мбит/сек
Ширина : 1280 пикс.
Высота : 536 пикс.
Соотношение сторон : 2,35:1
Режим частоты кадров : Постоянный
Частота кадров : 23,976 кадр/сек
Цветовое пространство : YUV
Подвыборка цветности : 4:2:0
Битовая глубина : 8 бит
Тип развёртки : Прогрессивная
Бит/(Пиксели*Кадры) : 0.142
Размер потока : 1,84 Гбайт (87%)
Заголовок : The Golden Compass
Библиотека кодирования : x264 core 98 r1629 2e81ce1
Настройки программы : cabac=1 / ref=9 / deblock=1:-2:-1 / analyse=0x3:0x133 / me=umh / subme=9 / psy=1 / psy_rd=1.00:0.15 / mixed_ref=1 / me_range=48 / chroma_me=1 / trellis=2 / 8x8dct=1 / cqm=0 / deadzone=21,11 / fast_pskip=0 / chroma_qp_offset=-3 / threads=6 / sliced_threads=0 / nr=0 / decimate=1 / interlaced=0 / constrained_intra=0 / bframes=7 / b_pyramid=2 / b_adapt=2 / b_bias=0 / direct=3 / weightb=1 / weightp=2 / keyint=250 / keyint_min=25 / scenecut=40 / intra_refresh=0 / rc_lookahead=120 / rc=2pass / mbtree=1 / bitrate=2329 / ratetol=1.0 / qcomp=0.70 / qpmin=10 / qpmax=51 / qpstep=4 / cplxblur=20.0 / qblur=0.5 / ip_ratio=1.40 / aq=2:0.90 / zones=148191,162984,q=35
Язык : English
Аудио #1
Идентификатор : 2
Формат : AAC
Формат/Информация : Advanced Audio Codec
Профиль формата : LC
Идентификатор кодека : 40
Продолжительность : 1 ч. 53 м.
Вид битрейта : Переменный
Битрейт : 170 Кбит/сек
Максимальный битрейт : 256 Кбит/сек
Канал(ы) : 2 канала(ов)
Расположение каналов : Front: L R
Частота : 48,0 КГц
Метод сжатия : С потерями
Размер потока : 138 Мбайт (6%)
Заголовок : Russian stereo
Язык : Russian
Аудио #2
Идентификатор : 3
Формат : AAC
Формат/Информация : Advanced Audio Codec
Профиль формата : LC
Идентификатор кодека : 40
Продолжительность : 1 ч. 53 м.
Вид битрейта : Переменный
Битрейт : 170 Кбит/сек
Максимальный битрейт : 256 Кбит/сек
Канал(ы) : 2 канала(ов)
Расположение каналов : Front: L R
Частота : 48,0 КГц
Метод сжатия : С потерями
Размер потока : 138 Мбайт (6%)
Заголовок : English stereo
Язык : English
Текст #1
Идентификатор : 4
Формат : Timed text
Режим смешивания : sbtl
Идентификатор кодека : tx3g
Продолжительность : 1 ч. 53 м.
Вид битрейта : Переменный
Битрейт : 83 бит/сек
Размер потока : 69,1 Кбайт (0%)
Язык : Russian
Текст #2
Идентификатор : 5
Формат : Timed text
Режим смешивания : sbtl
Идентификатор кодека : tx3g
Продолжительность : 1 ч. 46 м.
Вид битрейта : Переменный
Битрейт : 82 бит/сек
Размер потока : 63,6 Кбайт (0%)
Заголовок : DemonHeart
Язык : Russian
Текст #3
Идентификатор : 6
Формат : Timed text
Режим смешивания : sbtl
Идентификатор кодека : tx3g
Продолжительность : 1 ч. 46 м.
Вид битрейта : Переменный
Битрейт : 57 бит/сек
Размер потока : 44,2 Кбайт (0%)
Язык : English
Текст #4
Идентификатор : 7
Формат : Apple text
Идентификатор кодека : text
Продолжительность : 1 ч. 53 м.
Вид битрейта : Переменный
Битрейт : 1 бит/сек
Размер потока : 584 байт (0%)

Скриншоты



Вернуться к началу
 Профиль Отправить личное сообщение  
 
   Похожие торренты   Автор   Торрент   Размер 
В этой теме нет новых непрочитанных сообщений. Бугимен 2 / Boogeyman 2 [ужасы, триллер, драма, 2007] BDRip 720p, Dub [iPad]

salma3

0 | 0

1.67 ГБ

В этой теме нет новых непрочитанных сообщений. Бен-Гур / Ben-Hur [боевик, драма, приключения, 2016] BDRip 720p, Du [iPad] [Лицензия]

salma3

0 | 0

2.62 ГБ

В этой теме нет новых непрочитанных сообщений. Поворот не туда 2: Тупик / Wrong Turn 2: Dead End [ужасы, 2007] BDRip 720p, Dub [iPad]

salma3

0 | 0

2.57 ГБ

В этой теме нет новых непрочитанных сообщений. Защитники [фантастика, фэнтези, боевик, приключения, 2017] BDRip 720p [iPad] [Лицензия]

salma3

368 | 63

2.08 ГБ

В этой теме нет новых непрочитанных сообщений. Восставший / Risen [боевик, драма, детектив, приключения, 2016] BDRip 720p, Dub [iPad]

salma3

29 | 9

1.91 ГБ

В этой теме нет новых непрочитанных сообщений. Великолепная семерка / The Magnificent Seven [боевик, приключения, вестерн, 2016] BDRip 720p, Dub [iPad] [Лицензия]

salma3

0 | 0

2.72 ГБ

В этой теме нет новых непрочитанных сообщений. Пассажиры / Passengers [фантастика, драма, мелодрама, приключения, 2016] BDRip 720p, Dub [iPad] [Лицензия]

salma3

97 | 14

2.12 ГБ


Начать новую тему Ответить на тему  [ 1 сообщение ] 




Для Мосгорсуда, Роскомнадзора и рекламодателей:: mosgorsud-torrent[собачка]yandex.ru
cron