Торрент файл
скачать торрент магнет ссылка Добавлен: 11 янв 2013, 22:22
Размер: 3.43 ГБ
Сидеров: 9
Личеров: 5
Автор

СообщениеДобавлено: 11 янв 2013, 22:22 

Не в сети
Супермодератор
Аватара пользователя
Дата регистрации:
11 апр 2010, 18:10
Спасибо: 5995 / 7
Сообщения: 56685
id="p-25224744-1">
Ешь, молись, люби / Eat Pray Love«Let Yourself Go This August»


Страна: США
Жанр: драма, мелодрама
Год выпуска: 2010
Продолжительность: 02:20:05

Перевод: Профессиональный (полное дублирование)
Оригинальная аудиодорожка: Английский
Cубтитры: Русские (надписи, диалоги), Английские
Режиссер: Райан Мерфи / Ryan Murphy

В ролях: Джулия Робертс (Liz Gilbert,), Хавьер Бардем (Felipe), Билли Крудап (Stephen), Виола Дэвис (Delia Shiraz), Майк О’Мэлли (Andy Shiraz), Эшли Эткинсон (Bookstore Girl), Джеймс Франко (David Piccolo), Ричард Дженкинс (Richard from Texas), Софи Томпсон (Corella), Лиза Робертс (Woman in Play), И. Густи Айу Пуспавати (Nyomo), Хади Субиянто (Ketut Liyer)
Дублёры: Наталья Грачева (Liz Gilbert), Сергей Чонишвили (Felipe), Алексей Мясников (Stephen), Ольга Кузнецова (Delia Shiraz), Михаил Георгиу (Andy Shiraz), Александр Гаврилин (David Piccolo), Владимир Антоник (Richard from Texas), Вячеслав Баранов (Ketut Liyer), Василий Дахненко (Giovanni), Диомид Виноградов (Luca Spaghetti), Лиза Мартиросова (Tulsi), Денис Виленкин (Madhu)

Описание: Замужняя женщина Элизабет Гилберт в один прекрасный день понимает, что живёт совершенно не той жизнью, которой хотела. После болезненного развода она отправляется в путешествие по миру, которое поможет ей открыть новые горизонты и познать себя.
Рейтинг
imdb.com: 5.30 (22 938)
MPAA: PG-13 - Детям до 13 лет просмотр не желателен
Качество видео: BDRip - Исходник BD Remux
Формат видео: m4v
Видео кодек: H.264
Аудио кодек: AAC
Видео: 1280х688 (1.86:1), 23,976 fps, H.264 3150 kbps avg, 0.149 bit/pixel
Аудио #1: Russian, 48,0 kHz, AAC LC, 2 ch, 166 kbps avg | DUB
Аудио #2: English, 48,0 kHz, AAC LC, 2 ch, 177 kbps avg | Original
MediaInfo
Код:
Код:
General
Complete name                            : D:\NEW\Eat Pray Love\Eat.Pray.Love.2010.BDRip.m4v
Format                                   : MPEG-4
Codec ID                                 : M4V
File size                                : 3.43 GiB
Duration                                 : 2h 20mn
Overall bit rate mode                    : Variable
Overall bit rate                         : 3 505 Kbps
Movie name                               : Ешь, молись, люби
Performer                                : Райан Мерфи
Genre                                    : драма, мелодрама
Recorded date                            : UTC 2010-08-13 07:00:00
Encoded date                             : UTC 2012-01-06 16:25:00
Tagged date                              : UTC 2012-01-07 16:32:16
Writing application                      : MkvToMp4 [www.mkvtomp4.ru] version 0.218Test3
Cover                                    : Yes
desc                                     : Замужняя женщина Элизабет Гилберт в один прекрасный день понимает, что живёт совершенно не той жизнью, которой хотела. После болезненного развода она отправляется в путешествие по миру, которое поможет ей открыть новые горизонты и познать себя.
ldes                                     : Замужняя женщина Элизабет Гилберт в один прекрасный день понимает, что живёт совершенно не той жизнью, которой хотела. После болезненного развода она отправляется в путешествие по миру, которое поможет ей открыть новые горизонты и познать себя.
hdvd                                     : 1
stik                                     : 9
cnID                                     : 393457278
xid                                      : iPad:vendor_id:2010-454522
iTunEXTC                                 : mpaa|PG-13|300|
iTunMOVI                                 : <?xml version="1.0" encoding="UTF-8"?> / <!DOCTYPE plist PUBLIC "-/Apple/DTD PLIST 1.0/EN" "http:/www.apple.com/DTDs/PropertyList-1.0.dtd"> / <plist version="1.0"> /  <dict> /   <key>cast</key> /   <array> /    <dict> /     <key>name</key> /     <string>Джулия Робертс</string> /    </dict> /    <dict> /     <key>name</key> /     <string>Хавьер Бардем</string> /    </dict> /    <dict> /     <key>name</key> /     <string>Билли Крудап</string> /    </dict> /    <dict> /     <key>name</key> /     <string>Виола Дэвис</string> /    </dict> /    <dict> /     <key>name</key> /     <string>Майк О`Мэлли</string> /    </dict> /    <dict> /     <key>name</key> /     <string>Эшли Эткинсон</string> /    </dict> /    <dict> /     <key>name</key> /     <string>Джеймс Франко</string> /    </dict> /    <dict> /     <key>name</key> /     <string>Ричард Дженкинс</string> /    </dict> /    <dict> /     <key>name</key> /     <string>Софи Томпсон</string> /    </dict> /    <dict> /     <key>name</key> /     <string>Лиза Робертс</string> /    </dict> /   </array> /   <key>directors</key> /   <array> /    <dict> /     <key>name</key> /     <string>Райан Мерфи</string> /    </dict> /   </array> /   <key>producers</key> /   <array> /    <dict> /     <key>name</key> /     <string>Деде Гарднер</string> /    </dict> /    <dict> /     <key>name</key> /     <string>Стэн Влодковски</string> /    </dict> /    <dict> /     <key>name</key> /     <string>Гари Л. Хэйес</string> /    </dict> /   </array> /   <key>screenwriters</key> /   <array> /    <dict> /     <key>name</key> /     <string>Райан Мерфи</string> /    </dict> /    <dict> /     <key>name</key> /     <string>Дженнифер Солт</string> /    </dict> /    <dict> /     <key>name</key> /     <string>Элизабет Гилберт</string> /    </dict> /   </array> /  </dict> / </plist>
Video
ID                                       : 1
Format                                   : AVC
Format/Info                              : Advanced Video Codec
Format profile                           : [email protected]
Format settings, CABAC                   : Yes
Format settings, ReFrames                : 9 frames
Codec ID                                 : avc1
Codec ID/Info                            : Advanced Video Coding
Duration                                 : 2h 20mn
Bit rate                                 : 3 150 Kbps
Maximum bit rate                         : 16.0 Mbps
Width                                    : 1 280 pixels
Height                                   : 688 pixels
Display aspect ratio                     : 1.860
Frame rate mode                          : Variable
Frame rate                               : 23.976 fps
Minimum frame rate                       : 23.810 fps
Maximum frame rate                       : 24.390 fps
Color space                              : YUV
Chroma subsampling                       : 4:2:0
Bit depth                                : 8 bits
Scan type                                : Progressive
Bits/(Pixel*Frame)                       : 0.149
Stream size                              : 3.08 GiB (90%)
Writing library                          : x264 core 112
Encoding settings                        : cabac=1 / ref=9 / deblock=1:0:0 / analyse=0x3:0x113 / me=umh / subme=9 / psy=1 / psy_rd=1.00:0.00 / mixed_ref=1 / me_range=32 / chroma_me=1 / trellis=1 / 8x8dct=1 / cqm=0 / deadzone=21,11 / fast_pskip=1 / chroma_qp_offset=-2 / threads=12 / sliced_threads=0 / nr=0 / decimate=1 / interlaced=0 / constrained_intra=0 / bframes=6 / b_pyramid=2 / b_adapt=1 / b_bias=0 / direct=1 / weightb=1 / open_gop=0 / weightp=2 / keyint=240 / keyint_min=23 / scenecut=40 / intra_refresh=0 / rc_lookahead=40 / rc=2pass / mbtree=1 / bitrate=3150 / ratetol=1.0 / qcomp=0.60 / qpmin=3 / qpmax=51 / qpstep=4 / cplxblur=20.0 / qblur=0.5 / ip_ratio=1.40 / aq=1:1.00
Language                                 : English
Encoded date                             : UTC 2012-01-06 16:25:00
Tagged date                              : UTC 2012-01-06 16:27:05
Color primaries                          : BT.709-5, BT.1361, IEC 61966-2-4, SMPTE RP177
Transfer characteristics                 : BT.709-5, BT.1361
Matrix coefficients                      : BT.709-5, BT.1361, IEC 61966-2-4 709, SMPTE RP177
Audio #1
ID                                       : 2
Format                                   : AAC
Format/Info                              : Advanced Audio Codec
Format profile                           : LC
Codec ID                                 : 40
Duration                                 : 2h 20mn
Bit rate mode                            : Variable
Bit rate                                 : 166 Kbps
Maximum bit rate                         : 234 Kbps
Channel(s)                               : 2 channels
Channel positions                        : Front: L R
Sampling rate                            : 48.0 KHz
Compression mode                         : Lossy
Stream size                              : 167 MiB (5%)
Title                                    : DUB
Language                                 : Russian
Encoded date                             : UTC 2012-01-06 16:26:24
Tagged date                              : UTC 2012-01-06 16:27:05
Audio #2
ID                                       : 3
Format                                   : AAC
Format/Info                              : Advanced Audio Codec
Format profile                           : LC
Codec ID                                 : 40
Duration                                 : 2h 20mn
Bit rate mode                            : Variable
Bit rate                                 : 177 Kbps
Maximum bit rate                         : 235 Kbps
Channel(s)                               : 2 channels
Channel positions                        : Front: L R
Sampling rate                            : 48.0 KHz
Compression mode                         : Lossy
Stream size                              : 177 MiB (5%)
Title                                    : Original
Language                                 : English
Encoded date                             : UTC 2012-01-06 16:26:48
Tagged date                              : UTC 2012-01-06 16:27:05
Text #1
ID                                       : 4
Format                                   : Timed text
Muxing mode                              : sbtl
Codec ID                                 : tx3g
Duration                                 : 2h 12mn
Bit rate mode                            : Variable
Bit rate                                 : 4 bps
Stream size                              : 3.71 KiB (0%)
Language                                 : Russian
Encoded date                             : UTC 2012-01-06 16:27:04
Tagged date                              : UTC 2012-01-06 16:27:05
Text #2
ID                                       : 5
Format                                   : Timed text
Muxing mode                              : sbtl
Codec ID                                 : tx3g
Duration                                 : 2h 13mn
Bit rate mode                            : Variable
Bit rate                                 : 64 bps
Stream size                              : 62.4 KiB (0%)
Language                                 : English
Encoded date                             : UTC 2012-01-06 16:27:04
Tagged date                              : UTC 2012-01-06 16:27:05
Text #3
ID                                       : 6
Format                                   : Apple text
Codec ID                                 : text
Duration                                 : 2h 20mn
Bit rate mode                            : Variable
Bit rate                                 : 0
Stream size                              : 375 Bytes (0%)
Encoded date                             : UTC 2012-01-07 16:32:16
Tagged date                              : UTC 2012-01-07 16:32:16

x264 log
Код:
Код:
x264 [info]: frame I:2652  Avg QP:15.80  size:100474  PSNR Mean Y:47.37 U:49.60 V:50.17 Avg:48.04 Global:47.56
x264 [info]: frame P:90984 Avg QP:18.96  size: 24797  PSNR Mean Y:45.16 U:48.44 V:49.08 Avg:46.03 Global:45.40
x264 [info]: frame B:107892 Avg QP:21.25  size:  7272  PSNR Mean Y:43.93 U:48.03 V:48.64 Avg:44.95 Global:44.53
x264 [info]: consecutive B-frames: 14.0% 39.7% 12.8% 19.6% 11.9%  2.0%  0.1%
x264 [info]: mb I  I16..4: 13.5% 71.4% 15.1%
x264 [info]: mb P  I16..4:  0.8%  3.5%  0.5%  P16..4: 42.8% 21.3% 13.1%  0.0%  0.0%    skip:17.8%
x264 [info]: mb B  I16..4:  0.0%  0.2%  0.0%  B16..8: 47.4%  5.4%  1.2%  direct: 1.9%  skip:43.8%  L0:43.2% L1:52.4% BI: 4.3%
x264 [info]: 8x8 transform intra:71.9% inter:72.8%
x264 [info]: coded y,uvDC,uvAC intra: 81.7% 80.4% 54.0% inter: 24.3% 23.1% 2.2%
x264 [info]: i16 v,h,dc,p: 37% 15% 10% 39%
x264 [info]: i8 v,h,dc,ddl,ddr,vr,hd,vl,hu:  7%  6%  3% 11% 17% 15% 15% 12% 12%
x264 [info]: i4 v,h,dc,ddl,ddr,vr,hd,vl,hu:  6%  6%  3% 11% 17% 15% 16% 12% 14%
x264 [info]: i8c dc,h,v,p: 41% 21% 18% 20%
x264 [info]: Weighted P-Frames: Y:1.5% UV:0.9%
x264 [info]: ref P L0: 55.6% 10.6% 14.7%  5.3%  4.2%  3.1%  2.9%  1.5%  1.5%  0.5%  0.0%
x264 [info]: ref B L0: 75.8% 11.4%  5.3%  2.5%  1.8%  1.7%  1.3%  0.2%
x264 [info]: ref B L1: 94.3%  5.7%
x264 [info]: SSIM Mean Y:0.9749930 (16.019db)
x264 [info]: PSNR Mean Y:44.527 U:48.235 V:48.860 Avg:45.477 Global:44.933 kb/s:3147.70

Скриншоты

Скриншоты с iPad




Вернуться к началу
 Профиль Отправить личное сообщение  
 
   Похожие торренты   Автор   Торрент   Размер 
В этой теме нет новых непрочитанных сообщений. Закон Мерфи / Murphy's Law [боевик, триллер, драма, криминал, детектив, 1986] BDRip 1080p, , Mvo+3Avo+Sub

salma3

76 | 21

7.64 ГБ

В этой теме нет новых непрочитанных сообщений. Война Мерфи / Murphy’s War [боевик, драма, военный, 1971] WEB-DLRip-AVC, Mvo

salma3

37 | 15

1.45 ГБ

В этой теме нет новых непрочитанных сообщений. Война Мерфи / Murphy’s War [боевик, драма, военный, 1971] WEB-DL 1080p, Mvo

salma3

30 | 10

8.27 ГБ

В этой теме нет новых непрочитанных сообщений. Закон Мерфи / Murphy's Law [боевик, драма, криминал, 1986] HDRip, Mvo

salma3

109 | 7

1.45 ГБ

В этой теме нет новых непрочитанных сообщений. Джеки и Райан / Jackie & Ryan (Эми Канаан Манн) [драма, 2015] WEB-DL 720p, Mvo

Dracon

10 | 2

2.84 ГБ

В этой теме нет новых непрочитанных сообщений. Джек Райан: Теория хаоса / Jack Ryan: Shadow Recruit [боевик, триллер, драма, 2014] BDRip-AVC, Dub+Sub [Лицензия]

salma3

272 | 25

1.46 ГБ

В этой теме нет новых непрочитанных сообщений. Закон Мерфи / Murphy's Law [Детектив, триллер, боевик, 1986] BDRemux 1080p, Mvo

salma3

28 | 22

24.3 ГБ


Начать новую тему Ответить на тему  [ 1 сообщение ] 




Для Мосгорсуда, Роскомнадзора и рекламодателей:: mosgorsud-torrent[собачка]yandex.ru
cron