Торрент файл
скачать торрент магнет ссылка Добавлен: 11 янв 2013, 22:22
Размер: 525.89 МБ
Сидеров: 1
Личеров: 3
Автор

СообщениеДобавлено: 11 янв 2013, 22:22 

Не в сети
Супермодератор
Аватара пользователя
Дата регистрации:
11 апр 2010, 18:10
Спасибо: 5996 / 7
Сообщения: 56684
id="p-25224744-1">Хижина в лесу
The Cabin in the Woods

Год выпуска: 2012
Страна: США
Жанр: Ужасы, фантастика, триллер
Продолжительность: 01:35:00
Перевод: Профессиональный (полное дублирование)
Режиссер: Дрю Годдард
Сценарий: Джосс Уидон, Дрю Годдард
Продюсер: Джосс Уидон, Джейсон Кларк, Джон Суоллоу
Оператор: Питер Диминг
Композитор: Дэвид Джульян
Художник: Мартин Уист, Майкл Динер, Кенделл Эллиотт, ...
Монтаж: Лиза Лэссек
В ролях: Ричард Дженкинс, Брэдли Уитфорд, Джесси Уильямс, Крис Хемсворт, Фрэн Кранц, Кристин Нора Коннолли, Анна Хатчисон, Брайан Дж. Уайт, Эми Эккер, Джоделль Ферланд
Описание: Шумная компания из пяти друзей сбегает на уик-энд подебоширить в изолированную от всего мира деревенскую хижину. Звучит знакомо? Ну так вы и не представляете, что вас ждёт на самом деле.
КиноПоиск.Ru: 7.046 (18 639)
IMDb: 7.30 (83 891)
Качество: HDRip
Формат: MP4
Видео кодек: H.264
Аудио кодек: AAC
Видео: 480x200 (2.40:1), 23.976 fps, 640 kbps
Аудио: 48 kHz, 2 ch, 128 kbps
Скриншоты:
MI:
General
Complete name : D:\Мои раздачи\The Cabin in the Woods\The Cabin in the Woods.mp4
Format : MPEG-4
Format profile : Base Media
Codec ID : isom
File size : 526 MiB
Duration : 1h 35mn
Overall bit rate mode : Variable
Overall bit rate : 774 Kbps
Movie name : The Cabin in the Woods
Performer : Дрю Годдард
Genre : Horror, Thriller, Fantasy
Encoded date : UTC 2012-09-30 11:27:31
Tagged date : UTC 2012-09-30 11:27:31
Writing application : Yamb 2.1.0.0 []http://yamb.unite-video.com]
Cover : Yes
desc : Шумная компания из пяти друзей сбегает на уик-энд подебоширить в изолированную от всего мира деревенскую хижину. Звучит знакомо? Ну так вы и не представляете, что вас ждёт на самом деле.
ldes : Шумная компания из пяти друзей сбегает на уик-энд подебоширить в изолированную от всего мира деревенскую хижину. Звучит знакомо? Ну так вы и не представляете, что вас ждёт на самом деле.
stik : 0
iTunMOVI : <?xml version="1.0" encoding="UTF-8"?> / <!DOCTYPE plist PUBLIC "-/Apple/DTD PLIST 1.0/EN" "http://www.apple.com/DTDs/PropertyList-1.0.dtd"> / <plist version="1.0"> / <dict> / <key>cast</key> / <array> / <dict> / <key>name</key> / <string>Ричард Дженкинс</string> / </dict> / <dict> / <key>name</key> / <string>Брэдли Уитфорд</string> / </dict> / <dict> / <key>name</key> / <string>Джесси Уильямс</string> / </dict> / <dict> / <key>name</key> / <string>Крис Хемсворт</string> / </dict> / <dict> / <key>name</key> / <string>Фрэн Кранц</string> / </dict> / <dict> / <key>name</key> / <string>Кристин Нора Коннолли</string> / </dict> / <dict> / <key>name</key> / <string>Анна Хатчисон</string> / </dict> / <dict> / <key>name</key> / <string>Брайан Дж. Уайт</string> / </dict> / <dict> / <key>name</key> / <string>Эми Эккер</string> / </dict> / <dict> / <key>name</key> / <string>Джоделль Ферланд</string> / </dict> / </array> / <key>directors</key> / <array> / <dict> / <key>name</key> / <string>Дрю Годдард</string> / </dict> / </array> / </dict> / </plist>
Video
ID : 1
Format : AVC
Format/Info : Advanced Video Codec
Format profile : [email protected]
Format settings, CABAC : No
Format settings, ReFrames : 6 frames
Codec ID : avc1
Codec ID/Info : Advanced Video Coding
Duration : 1h 35mn
Bit rate : 640 Kbps
Maximum bit rate : 5 551 Kbps
Width : 480 pixels
Height : 200 pixels
Display aspect ratio : 2.40:1
Frame rate mode : Constant
Frame rate : 23.976 fps
Color space : YUV
Chroma subsampling : 4:2:0
Bit depth : 8 bits
Scan type : Progressive
Bits/(Pixel*Frame) : 0.278
Stream size : 435 MiB (83%)
Writing library : x264 core 125 r2208 d9d2288
Encoding settings : cabac=0 / ref=6 / deblock=1:-1:-1 / analyse=0x1:0x111 / me=umh / subme=9 / psy=1 / psy_rd=1.00:0.00 / mixed_ref=1 / me_range=16 / chroma_me=1 / trellis=0 / 8x8dct=0 / cqm=0 / deadzone=21,11 / fast_pskip=0 / chroma_qp_offset=-2 / threads=6 / lookahead_threads=1 / sliced_threads=0 / nr=0 / decimate=0 / interlaced=0 / bluray_compat=0 / constrained_intra=0 / bframes=0 / weightp=0 / keyint=250 / keyint_min=23 / scenecut=40 / intra_refresh=0 / rc_lookahead=60 / rc=2pass / mbtree=1 / bitrate=640 / ratetol=1.0 / qcomp=0.60 / qpmin=0 / qpmax=69 / qpstep=4 / cplxblur=20.0 / qblur=0.5 / ip_ratio=1.40 / aq=1:1.00
Encoded date : UTC 2012-09-30 08:09:31
Tagged date : UTC 2012-09-30 11:28:34
Audio
ID : 2
Format : AAC
Format/Info : Advanced Audio Codec
Format profile : LC
Codec ID : 40
Duration : 1h 35mn
Bit rate mode : Variable
Bit rate : 128 Kbps
Maximum bit rate : 136 Kbps
Channel(s) : 2 channels
Channel positions : Front: L R
Sampling rate : 48.0 KHz
Compression mode : Lossy
Stream size : 87.0 MiB (17%)
Language : Russian
Encoded date : UTC 2012-09-30 11:28:33
Tagged date : UTC 2012-09-30 11:28:34



Вернуться к началу
 Профиль Отправить личное сообщение  
 
   Похожие торренты   Автор   Торрент   Размер 
В этой теме нет новых непрочитанных сообщений. Хижина в лесу / The Cabin in the Woods [ужасы, триллер, 2011] BDRemux 1080p, Dub [Лицензия]

salma3

38 | 21

21.76 ГБ

В этой теме нет новых непрочитанных сообщений. Хижина в лесу: Новая глава / Demon Hole [ужасы, комедия, 2017] WEB-DLRip, Mvo [iTunes]

salma3

121 | 29

1.46 ГБ

В этой теме нет новых непрочитанных сообщений. В лесу не сношаться! / Don't Fuck in the Woods [ужасы, 2016] WEB-DLRip, Mvo

salma3

367 | 272

1.37 ГБ

В этой теме нет новых непрочитанных сообщений. В лесу не сношаться! / Don't Fuck in the Woods [ужасы, 2016] WEB-DLRip, Dvo

salma3

3786 | 474

1.36 ГБ

В этой теме нет новых непрочитанных сообщений. Ночь в лесу / A Night in the Woods (Ричард Парри) [2011, ужасы, DVDRip] avo

Nickolas3435

35 | 6

733.49 МБ

В этой теме нет новых непрочитанных сообщений. Последние каникулы 2 / Cabin Fever 2: Spring Fever [ужасы, триллер, комедия, 2009] HDRip, Mvo

salma3

126 | 20

701.67 МБ

В этой теме нет новых непрочитанных сообщений. В лесу / Into the Forest [фантастика, драма, 2015] HDRip, mvo

marya111

14 | 14

1.46 ГБ


Начать новую тему Ответить на тему  [ 1 сообщение ] 




Для Мосгорсуда, Роскомнадзора и рекламодателей:: mosgorsud-torrent[собачка]yandex.ru
cron