Торрент файл
скачать торрент магнет ссылка Добавлен: 11 янв 2013, 22:22
Размер: 3.18 ГБ
Сидеров: 14
Личеров: 8
Автор

СообщениеДобавлено: 11 янв 2013, 22:22 

Не в сети
Супермодератор
Аватара пользователя
Дата регистрации:
11 апр 2010, 18:10
Спасибо: 5995 / 7
Сообщения: 56685
id="p-25224744-1">Страх и ненависть в Лас-Вегасе / Fear and Loathing in Las Vegas«Buy the ticket, take the ride.»

Страна: США
Жанр: драма, комедия
Год выпуска: 1998
Продолжительность: 01:58:28
Перевод: Профессиональный (многоголосый, закадровый)
Cубтитры: есть
Оригинальная аудиодорожка: английский
Режиссер: Терри Гиллиам
Сценарий: Терри Гиллиам, Тони Гризони, Тод Дейвис
Продюсер: Патрик Кассаветти, Лайла Набулси, Стефен Немет
В ролях: Джонни Депп (Raoul Duke), Бенисио Дель Торо (Dr Gonzo), Тоби Магуайр (Hitchhiker), Эллен Баркин (Waitress at North Star Cafe), Гэри Бьюзи (Highway Patrolman), Кристина Риччи (Lucy), Марк Хэрмон (Magazine Reporter at Mint 400), Кэмерон Диаз (Blonde TV Reporter), Кэтрин Хелмонд (Desk Clerk at Mint Hotel), Майкл Джитер (L. Ron Bumquist), Пенн Джиллетт (Carnie Talker), Крэйг Бирко (Lacerda)
Описание: Два приятеля едут в Лас-Вегас. Одного из них зовут Рауль Дьюк, он спортивный обозреватель, и в Вегас едет чтобы осветить знаменитую «Минт 400». Второго зовут Доктор Гонзо. Или что-то вроде того. А еще Доктор Гонзо — адвокат, но какая разница? Да и вокруг творится нечто невообразимое. Родную Неваду не узнать. Только специальные препараты могут спасти от всех этих тварей. Нормальным парням вроде наших героев временами даже как-то неуютно в этом хаосе…
Качество: BDRip
Исходник: Blu-ray
Формат: m4v
Видео кодек: H.264
Аудио кодек: AAC
Видео: 1024х432, 3500 Kbps, 23,976 fps
Аудио RUS: 48 kHz, AAC, 2ch, 153 kbps - Профессиональный (многоголосый, закадровый)
Аудио ENG: 48 kHz, AAC, 2ch, 187 kbps - Оригинал
MediaInfo
Код:
Код:
Полное имя : E:\Fear and Loathing in Las Vegas_new.m4v
Формат : MPEG-4
Идентификатор кодека : M4V
Размер файла : 3,18 Гбайт
Продолжительность : 1 ч. 58 м.
Общий поток : 3846 Кбит/сек
Название фильма : Страх и ненависть в Лас-Вегасе
Исполнитель : Terry Gilliam
Жанр : Comedy
Дата записи : UTC 1998-11-17 08:00:00
Дата кодирования : UTC 2011-12-11 16:42:22
Дата пометки : UTC 2011-12-12 16:48:24
Обложка : Yes
desc : Два приятеля едут в Лас-Вегас. Одного из них зовут Рауль Дьюк, он спортивный обозреватель, и в Вегас едет чтобы осветить знаменитую «Минт 400». Второго зовут Доктор Гонзо.
ldes : Два приятеля едут в Лас-Вегас. Одного из них зовут Рауль Дьюк, он спортивный обозреватель, и в Вегас едет чтобы осветить знаменитую «Минт 400». Второго зовут Доктор Гонзо. Или что-то вроде того. А еще Доктор Гонзо — адвокат, но какая разница? Да и вокруг творится нечто невообразимое. Родную Неваду не узнать. Только специальные препараты могут спасти от всех этих тварей. Нормальным парням вроде наших героев временами даже как-то неуютно в этом хаосе…
hdvd : 1
stik : 9
cnID : 281978113
xid : iPad:vendor_id:1998-4385
iTunEXTC : mpaa|R|400|
iTunMOVI : / / / / cast / / / name / Джонни Депп / / / name / Бенисио Дель Торо / / / name / Тоби Магуайр / / / name / Эллен Баркин / / / name / Гэри Бьюзи / / / name / Кристина Риччи / / / name / Марк Хэрмон / / / name / Кэмерон Диаз / / / name / Кэтрин Хелмонд / / / name / Майкл Джитер / / / directors / / / name / Терри Гиллиам / / / producers / / / name / Патрик Кассаветти / / / name / Лайла Набулси / / / name / Стефен Немет / / / screenwriters / / / name / Терри Гиллиам / / / name / Тони Гризони / / / name / Тод Дейвис / / / /
Видео
Идентификатор : 1
Формат : AVC
Формат/Информация : Advanced Video Codec
Профиль формата : [email protected]
Параметр CABAC формата : Да
Параметр ReFrames формата : 9 кадры
Параметры GOP формата : M=1, N=46
Идентификатор кодека : avc1
Идентификатор кодека/Информация : Advanced Video Coding
Продолжительность : 1 ч. 58 м.
Вид битрейта : Переменный
Битрейт : 3500 Кбит/сек
Максимальный битрейт : 11,7 Мбит/сек
Ширина : 1024 пикс.
Высота : 432 пикс.
Соотношение сторон : 2,35:1
Режим частоты кадров : Переменный
Частота кадров : 23,976 кадр/сек
Минимальная частота кадров : 23,969 кадр/сек
Максимальная частота кадров : 24,038 кадр/сек
Цветовое пространство : YUV
Подвыборка цветности : 4:2:0
Битовая глубина : 8 бит
Тип развёртки : Прогрессивная
Бит/(Пиксели*Кадры) : 0.330
Размер потока : 2,90 Гбайт (91%)
Библиотека кодирования : x264 core 112
Настройки программы : cabac=1 / ref=9 / deblock=1:0:0 / analyse=0x3:0x113 / me=umh / subme=9 / psy=1 / psy_rd=1.00:0.00 / mixed_ref=1 / me_range=16 / chroma_me=1 / trellis=1 / 8x8dct=1 / cqm=0 / deadzone=21,11 / fast_pskip=1 / chroma_qp_offset=-2 / threads=3 / sliced_threads=0 / nr=0 / decimate=1 / interlaced=0 / constrained_intra=0 / bframes=6 / b_pyramid=2 / b_adapt=1 / b_bias=0 / direct=1 / weightb=1 / open_gop=0 / weightp=2 / keyint=240 / keyint_min=23 / scenecut=40 / intra_refresh=0 / rc_lookahead=40 / rc=2pass / mbtree=1 / bitrate=3500 / ratetol=1.0 / qcomp=0.60 / qpmin=3 / qpmax=51 / qpstep=4 / cplxblur=20.0 / qblur=0.5 / ip_ratio=1.40 / aq=1:1.00
Язык : English
Дата кодирования : UTC 2011-12-11 16:42:22
Дата пометки : UTC 2011-12-11 16:45:53
Основные цвета : BT.709-5, BT.1361, IEC 61966-2-4, SMPTE RP177
Характеристики трансфера : BT.709-5, BT.1361
Коэффициенты матрицы : BT.709-5, BT.1361, IEC 61966-2-4 709, SMPTE RP177
Аудио #1
Идентификатор : 2
Формат : AAC
Формат/Информация : Advanced Audio Codec
Профиль формата : LC
Идентификатор кодека : 40
Продолжительность : 1 ч. 58 м.
Вид битрейта : Переменный
Битрейт : 153 Кбит/сек
Максимальный битрейт : 220 Кбит/сек
Канал(ы) : 2 канала(ов)
Расположение каналов : Front: L R
Частота : 48,0 КГц
Метод сжатия : С потерями
Размер потока : 129 Мбайт (4%)
Заголовок : Russian stereo
Язык : Russian
Дата кодирования : UTC 2011-12-11 16:45:35
Дата пометки : UTC 2011-12-11 16:45:53
Аудио #2
Идентификатор : 3
Формат : AAC
Формат/Информация : Advanced Audio Codec
Профиль формата : LC
Идентификатор кодека : 40
Продолжительность : 1 ч. 58 м.
Вид битрейта : Переменный
Битрейт : 187 Кбит/сек
Максимальный битрейт : 238 Кбит/сек
Канал(ы) : 2 канала(ов)
Расположение каналов : Front: L R
Частота : 48,0 КГц
Метод сжатия : С потерями
Размер потока : 159 Мбайт (5%)
Заголовок : English stereo
Язык : English
Дата кодирования : UTC 2011-12-11 16:45:43
Дата пометки : UTC 2011-12-11 16:45:53
Текст #1
Идентификатор : 4
Формат : Timed text
Режим смешивания : sbtl
Идентификатор кодека : tx3g
Продолжительность : 1 ч. 52 м.
Вид битрейта : Переменный
Битрейт : 122 бит/сек
Размер потока : 100 Кбайт (0%)
Язык : Russian
Дата кодирования : UTC 2011-12-11 16:45:52
Дата пометки : UTC 2011-12-11 16:45:53
Текст #2
Идентификатор : 5
Формат : Timed text
Режим смешивания : sbtl
Идентификатор кодека : tx3g
Продолжительность : 1 ч. 57 м.
Вид битрейта : Переменный
Битрейт : 93 бит/сек
Размер потока : 80,3 Кбайт (0%)
Язык : English
Дата кодирования : UTC 2011-12-11 16:45:52
Дата пометки : UTC 2011-12-11 16:45:53

Log
Код:
Код:
x264 [info]: frame I:1564  Avg QP:16.06  size: 78730  PSNR Mean Y:46.88 U:49.64 V:49.85 Avg:47.63 Global:47.09
x264 [info]: frame P:86418 Avg QP:19.00  size: 26358  PSNR Mean Y:43.80 U:47.36 V:47.41 Avg:44.67 Global:44.24
x264 [info]: frame B:82454 Avg QP:21.31  size:  8589  PSNR Mean Y:42.32 U:46.73 V:46.83 Avg:43.35 Global:43.01
x264 [info]: consecutive B-frames: 14.7% 54.8% 18.2% 10.6%  1.7%  0.0%  0.0%
x264 [info]: mb I  I16..4:  6.0% 74.5% 19.5%
x264 [info]: mb P  I16..4:  0.4%  7.1%  1.3%  P16..4: 36.1% 30.6% 19.0%  0.0%  0.0%    skip: 5.4%
x264 [info]: mb B  I16..4:  0.0%  1.0%  0.2%  B16..8: 46.4% 13.2%  4.4%  direct: 4.8%  skip:30.1%  L0:41.1% L1:44.3% BI:14.6%
x264 [info]: 8x8 transform intra:79.7% inter:60.4%
x264 [info]: coded y,uvDC,uvAC intra: 94.5% 85.1% 56.8% inter: 43.0% 36.4% 7.0%
x264 [info]: i16 v,h,dc,p: 38% 17% 11% 34%
x264 [info]: i8 v,h,dc,ddl,ddr,vr,hd,vl,hu:  6%  7%  4% 11% 17% 15% 15% 12% 13%
x264 [info]: i4 v,h,dc,ddl,ddr,vr,hd,vl,hu:  7%  6%  2% 10% 17% 16% 16% 13% 14%
x264 [info]: i8c dc,h,v,p: 40% 24% 18% 18%
x264 [info]: Weighted P-Frames: Y:8.4% UV:6.0%
x264 [info]: ref P L0: 51.2% 13.6% 13.5%  6.6%  4.8%  3.6%  2.9%  1.8%  1.4%  0.5%  0.0%
x264 [info]: ref B L0: 72.2% 12.6%  6.2%  3.2%  2.4%  1.8%  1.3%  0.2%
x264 [info]: ref B L1: 95.4%  4.6%
x264 [info]: SSIM Mean Y:0.9743972 (15.917db)
x264 [info]: PSNR Mean Y:43.113 U:47.075 V:47.151 Avg:44.057 Global:43.617 kb/s:3498.99

Скриншоты
Для просмотра данного релиза на компьютере с ОС Windows рекомендуется использовать VLC media player



Вернуться к началу
 Профиль Отправить личное сообщение  
 
   Похожие торренты   Автор   Торрент   Размер 
В этой теме нет новых непрочитанных сообщений. Страх и ненависть в Лас-Вегасе / Fear and Loathing in Las Vegas [драма, комедия, 1998] BDRip, Dub

salma3

46 | 12

2.18 ГБ

В этой теме нет новых непрочитанных сообщений. Страх и ненависть в Лас-Вегасе / Fear and Loathing in Las Vegas [драма, комедия, 1998] WEB-DL 1080p, Dub [Open Matte]

salma3

0 | 0

24.38 ГБ

В этой теме нет новых непрочитанных сообщений. Страх / Fear [триллер, драма, 1996] BDRip 720p, Dub

salma3

3 | 7

8.17 ГБ

В этой теме нет новых непрочитанных сообщений. Корпорация «Страх» / Fear, Inc. [ужасы, триллер, комедия, 2016] BDRip 1080p, Avo

salma3

315 | 141

6.95 ГБ

В этой теме нет новых непрочитанных сообщений. Страх темноты / The Fear of Darkness [триллер, 2015] BDRip 1080p, Dub [iTunes]

salma3

361 | 127

6.78 ГБ

В этой теме нет новых непрочитанных сообщений. Обнаженный страх / Naked Fear [ужасы, триллер, 2007] BDRip 1080p, Mvo

salma3

47 | 9

8.22 ГБ

В этой теме нет новых непрочитанных сообщений. Любовь без участия / Anything for Love (Терри Ингрэм / Terry Ingram) [2016г., Канада, мелодрама, комедия, HDTVRip] mvo

Alfredovich

289 | 28

1.37 ГБ


Начать новую тему Ответить на тему  [ 1 сообщение ] 




Для Мосгорсуда, Роскомнадзора и рекламодателей:: mosgorsud-torrent[собачка]yandex.ru
cron