Торрент файл
скачать торрент магнет ссылка Добавлен: 11 янв 2013, 22:21
Размер: 2.81 ГБ
Сидеров: 1
Личеров: 3
Автор

СообщениеДобавлено: 11 янв 2013, 22:21 

Не в сети
Супермодератор
Аватара пользователя
Дата регистрации:
11 апр 2010, 18:10
Спасибо: 5995 / 7
Сообщения: 56685
id="p-25224744-1">
99 франков / 99 francs«Вызов и провокация в каждом кадре»


Страна: Франция
Жанр: драма, комедия
Год выпуска: 2007

Перевод: Профессиональный (полное дублирование)
Оригинальная аудиодорожка: Французский
Cубтитры: Русские, Английские
Режиссер: Ян Каунен / Jan Kounen

В ролях: Жан Дюжарден (Octave Parango), Жослин Киврен (Charles 'Charlie' Dagout), Патрик Милле (Jean-François 'Jeff' Marolles), Ваина Джоканте (Sophie), Элиза Товати (Tamara), Николя Марье (Alfred Duler), Доминик Беттенфельд (Jean-Christian Gagnant), Антуан Баслер (Marc Maronnier), Фоско Перинти (Giovanni Di Toro), Сендрин Орсье (Fabienne), Дэн Херцберг (Steven), Арсен Моска (Le dealer)
Дублёры: Василий Дахненко (Octave Parango), Илья Бледный (Charles 'Charlie' Dagout), Александр Комлев (Jean-François 'Jeff' Marolles), Татьяна Шитова (Sophie), Любовь Германова (Tamara), Александр Рахленко (Alfred Duler), Валерий Сторожик (Jean-Christian Gagnant), Михаил Тихонов (Marc Maronnier), Андрей Бархударов (Giovanni Di Toro), Людмила Шувалова (Fabienne)

Описание: Октаву нет равных во вселенной: ведь он занимается рекламой! Это он решает, чего вам захочется завтра. Для него «человек - это такой же продукт, как и все остальные». Октав трудится в крупнейшем рекламном агентстве. У него полно денег, женщин и кокаина, но, тем не менее, его терзают сомнения. Две вещи в корне меняют жизнь Октава: роман с Софи, самой красивой сотрудницей агентства, и совещание в гигантском молочном концерне «Мадон» по поводу рекламного ролика. Октав срывается с катушек и решает взбунтоваться против системы, которая его породила, саботируя свою же рекламную кампанию.
Рейтинг
imdb.com: 7.10 (6 695)
Качество видео: BDRip - Исходник BD Remux
Формат видео: m4v
Видео кодек: H.264
Аудио кодек: AAC
Видео: 1024х432 (2.40:1), 23,976 fps, H.264 3500 kbps avg, 0.330 bit/pixel
Аудио #1: Russian, 48,0 kHz, AAC LC, 2 ch, 166 kbps avg | DUB
Аудио #2: English, 48,0 kHz, AAC LC, 2 ch, 175 kbps avg | Original
MediaInfo
Код:
Код:
General
Complete name                            : D:\iPad.2\99 francs\99.Francs.2007.BDRip.m4v
Format                                   : MPEG-4
Codec ID                                 : M4V
File size                                : 2.81 GiB
Duration                                 : 1h 44mn
Overall bit rate mode                    : Variable
Overall bit rate                         : 3 854 Kbps
Movie name                               : 99 франков
Performer                                : Ян Каунен
Genre                                    : драма, комедия
Recorded date                            : UTC 2008-02-14 07:00:00
Encoded date                             : UTC 2011-12-18 16:57:12
Tagged date                              : UTC 2011-12-19 17:01:36
Writing application                      : MkvToMp4 [www.mkvtomp4.ru] version 0.218Test3
Cover                                    : Yes
desc                                     : Октаву нет равных во вселенной: ведь он занимается рекламой! Это он решает, чего вам захочется завтра. Для него «человек — это такой же продукт, как и все остальные». Октав трудится в крупнейшем рекламном агентстве. У него полно денег, женщин и кокаи
ldes                                     : Октаву нет равных во вселенной: ведь он занимается рекламой! Это он решает, чего вам захочется завтра. Для него «человек — это такой же продукт, как и все остальные». Октав трудится в крупнейшем рекламном агентстве. У него полно денег, женщин и кокаина, но, тем не менее, его терзают сомнения. Две вещи в корне меняют жизнь Октава: роман с Софи, самой красивой сотрудницей агентства, и совещание в гигантском молочном концерне «Мадон» по поводу рекламного ролика. Октав срывается с катушек и решает взбунтоваться против системы, которая его породила, саботируя свою же рекламную кампанию.
hdvd                                     : 1
stik                                     : 9
cnID                                     : 435366148
xid                                      : iPad:vendor_id:2008-262771
iTunMOVI                                 : <?xml version="1.0" encoding="UTF-8"?> / <!DOCTYPE plist PUBLIC "-/Apple/DTD PLIST 1.0/EN" "http:/www.apple.com/DTDs/PropertyList-1.0.dtd"> / <plist version="1.0"> /  <dict> /   <key>cast</key> /   <array> /    <dict> /     <key>name</key> /     <string>Жан Дюжарден</string> /    </dict> /    <dict> /     <key>name</key> /     <string>Жослин Киврин</string> /    </dict> /    <dict> /     <key>name</key> /     <string>Патрик Милль</string> /    </dict> /    <dict> /     <key>name</key> /     <string>Вахина Джоканте</string> /    </dict> /    <dict> /     <key>name</key> /     <string>Элиза Товати</string> /    </dict> /    <dict> /     <key>name</key> /     <string>Никола Мари</string> /    </dict> /    <dict> /     <key>name</key> /     <string>Доминик Беттенфельд</string> /    </dict> /    <dict> /     <key>name</key> /     <string>Антуа Басле</string> /    </dict> /    <dict> /     <key>name</key> /     <string>Фоско Перинти</string> /    </dict> /    <dict> /     <key>name</key> /     <string>Дан Херцберг</string> /    </dict> /   </array> /   <key>directors</key> /   <array> /    <dict> /     <key>name</key> /     <string>Ян Каунен</string> /    </dict> /   </array> /   <key>producers</key> /   <array> /    <dict> /     <key>name</key> /     <string>Ален Голдман</string> /    </dict> /    <dict> /     <key>name</key> /     <string>Реми Бура</string> /    </dict> /    <dict> /     <key>name</key> /     <string>Марк Ваде</string> /    </dict> /   </array> /   <key>screenwriters</key> /   <array> /    <dict> /     <key>name</key> /     <string>Николас Шарле</string> /    </dict> /    <dict> /     <key>name</key> /     <string>Бруно Лавэн</string> /    </dict> /    <dict> /     <key>name</key> /     <string>Ян Каунен</string> /    </dict> /   </array> /  </dict> / </plist>
Video
ID                                       : 1
Format                                   : AVC
Format/Info                              : Advanced Video Codec
Format profile                           : [email protected]
Format settings, CABAC                   : Yes
Format settings, ReFrames                : 9 frames
Codec ID                                 : avc1
Codec ID/Info                            : Advanced Video Coding
Duration                                 : 1h 44mn
Bit rate                                 : 3 500 Kbps
Maximum bit rate                         : 15.7 Mbps
Width                                    : 1 024 pixels
Height                                   : 432 pixels
Display aspect ratio                     : 2.35:1
Frame rate mode                          : Variable
Frame rate                               : 24.000 fps
Minimum frame rate                       : 23.992 fps
Maximum frame rate                       : 24.062 fps
Color space                              : YUV
Chroma subsampling                       : 4:2:0
Bit depth                                : 8 bits
Scan type                                : Progressive
Bits/(Pixel*Frame)                       : 0.330
Stream size                              : 2.55 GiB (91%)
Writing library                          : x264 core 112
Encoding settings                        : cabac=1 / ref=9 / deblock=1:0:0 / analyse=0x3:0x113 / me=umh / subme=9 / psy=1 / psy_rd=1.00:0.00 / mixed_ref=1 / me_range=24 / chroma_me=1 / trellis=1 / 8x8dct=1 / cqm=0 / deadzone=21,11 / fast_pskip=1 / chroma_qp_offset=-2 / threads=12 / sliced_threads=0 / nr=0 / decimate=1 / interlaced=0 / constrained_intra=0 / bframes=6 / b_pyramid=2 / b_adapt=1 / b_bias=0 / direct=1 / weightb=1 / open_gop=0 / weightp=2 / keyint=240 / keyint_min=24 / scenecut=40 / intra_refresh=0 / rc_lookahead=40 / rc=2pass / mbtree=1 / bitrate=3500 / ratetol=1.0 / qcomp=0.60 / qpmin=3 / qpmax=51 / qpstep=4 / cplxblur=20.0 / qblur=0.5 / ip_ratio=1.40 / aq=1:1.00
Language                                 : English
Encoded date                             : UTC 2011-12-18 16:57:12
Tagged date                              : UTC 2011-12-18 16:59:34
Color primaries                          : BT.709-5, BT.1361, IEC 61966-2-4, SMPTE RP177
Transfer characteristics                 : BT.709-5, BT.1361
Matrix coefficients                      : BT.709-5, BT.1361, IEC 61966-2-4 709, SMPTE RP177
Audio #1
ID                                       : 2
Format                                   : AAC
Format/Info                              : Advanced Audio Codec
Format profile                           : LC
Codec ID                                 : 40
Duration                                 : 1h 44mn
Bit rate mode                            : Variable
Bit rate                                 : 166 Kbps
Maximum bit rate                         : 234 Kbps
Channel(s)                               : 2 channels
Channel positions                        : Front: L R
Sampling rate                            : 48.0 KHz
Compression mode                         : Lossy
Stream size                              : 124 MiB (4%)
Title                                    : DUB
Language                                 : Russian
Encoded date                             : UTC 2011-12-18 16:58:31
Tagged date                              : UTC 2011-12-18 16:59:34
Audio #2
ID                                       : 3
Format                                   : AAC
Format/Info                              : Advanced Audio Codec
Format profile                           : LC
Codec ID                                 : 40
Duration                                 : 1h 44mn
Bit rate mode                            : Variable
Bit rate                                 : 175 Kbps
Maximum bit rate                         : 255 Kbps
Channel(s)                               : 2 channels
Channel positions                        : Front: L R
Sampling rate                            : 48.0 KHz
Compression mode                         : Lossy
Stream size                              : 131 MiB (5%)
Title                                    : Original
Language                                 : French
Encoded date                             : UTC 2011-12-18 16:59:21
Tagged date                              : UTC 2011-12-18 16:59:34
Text #1
ID                                       : 4
Format                                   : Timed text
Muxing mode                              : sbtl
Codec ID                                 : tx3g
Duration                                 : 1h 43mn
Bit rate mode                            : Variable
Bit rate                                 : 97 bps
Stream size                              : 73.9 KiB (0%)
Language                                 : Russian
Encoded date                             : UTC 2011-12-18 16:59:33
Tagged date                              : UTC 2011-12-18 16:59:34
Text #2
ID                                       : 5
Format                                   : Timed text
Muxing mode                              : sbtl
Codec ID                                 : tx3g
Duration                                 : 1h 40mn
Bit rate mode                            : Variable
Bit rate                                 : 55 bps
Stream size                              : 40.6 KiB (0%)
Language                                 : English
Encoded date                             : UTC 2011-12-18 16:59:33
Tagged date                              : UTC 2011-12-18 16:59:34

x264 log
Код:
Код:
x264 [info]: frame I:1866  Avg QP:17.77  size: 68735  PSNR Mean Y:45.10 U:49.72 V:49.99 Avg:46.16 Global:45.75
x264 [info]: frame P:83344 Avg QP:20.32  size: 24186  PSNR Mean Y:42.56 U:48.38 V:48.77 Avg:43.76 Global:43.29
x264 [info]: frame B:65246 Avg QP:22.50  size:  9173  PSNR Mean Y:41.11 U:47.75 V:48.10 Avg:42.42 Global:41.88
x264 [info]: consecutive B-frames: 21.2% 54.5% 18.9%  4.7%  0.4%  0.0%  0.3%
x264 [info]: mb I  I16..4:  9.3% 70.7% 20.0%
x264 [info]: mb P  I16..4:  0.6%  8.2%  1.4%  P16..4: 37.2% 27.6% 17.2%  0.0%  0.0%    skip: 7.9%
x264 [info]: mb B  I16..4:  0.0%  1.3%  0.2%  B16..8: 47.2% 12.1%  3.9%  direct: 5.5%  skip:29.9%  L0:42.2% L1:45.3% BI:12.5%
x264 [info]: 8x8 transform intra:79.6% inter:60.0%
x264 [info]: coded y,uvDC,uvAC intra: 94.4% 77.2% 42.8% inter: 43.8% 27.9% 2.3%
x264 [info]: i16 v,h,dc,p: 36% 16% 16% 32%
x264 [info]: i8 v,h,dc,ddl,ddr,vr,hd,vl,hu:  9%  6%  4% 11% 16% 16% 14% 13% 12%
x264 [info]: i4 v,h,dc,ddl,ddr,vr,hd,vl,hu: 10%  7%  2% 10% 16% 16% 14% 13% 13%
x264 [info]: i8c dc,h,v,p: 38% 26% 21% 15%
x264 [info]: Weighted P-Frames: Y:6.1% UV:3.8%
x264 [info]: ref P L0: 49.1% 12.7% 15.1%  6.4%  4.9%  3.7%  3.3%  1.9%  1.8%  1.0%  0.1%
x264 [info]: ref B L0: 68.0% 15.2%  6.4%  3.5%  2.5%  2.2%  1.8%  0.3%
x264 [info]: ref B L1: 94.6%  5.4%
x264 [info]: SSIM Mean Y:0.9691119 (15.102db)
x264 [info]: PSNR Mean Y:41.960 U:48.126 V:48.496 Avg:43.206 Global:42.638 kb/s:3499.78

Скриншоты

Скриншоты с iPad




Вернуться к началу
 Профиль Отправить личное сообщение  
 
   Похожие торренты   Автор   Торрент   Размер 
В этой теме нет новых непрочитанных сообщений. Бугимен 2 / Boogeyman 2 [ужасы, триллер, драма, 2007] BDRip 720p, Dub [iPad]

salma3

0 | 0

1.67 ГБ

В этой теме нет новых непрочитанных сообщений. Джанго освобожденный / Django Unchained [драма, вестерн, приключения, комедия, 2012] BDRip 720p, Dub [iPad] [Лицензия]

salma3

96 | 10

3.47 ГБ

В этой теме нет новых непрочитанных сообщений. Поворот не туда 2: Тупик / Wrong Turn 2: Dead End [ужасы, 2007] BDRip 720p, Dub [iPad]

salma3

0 | 0

2.57 ГБ

В этой теме нет новых непрочитанных сообщений. Третий лишний / Ted [фэнтези, комедия, 2012] BDRip 720p, Dub [iPad] [Лицензия]

salma3

16 | 10

2.67 ГБ

В этой теме нет новых непрочитанных сообщений. Третий лишний 2 / Ted 2 [комедия, 2015] BDRip 720p, Dub [Расширенная версия] [iPad] [iTunes]

salma3

42 | 25

2.56 ГБ

В этой теме нет новых непрочитанных сообщений. Человек-муравей / Ant-Man [фантастика, боевик, комедия, 2015] BDRip 720p, Dub [iPad] [Лицензия]

salma3

85 | 19

2.15 ГБ

В этой теме нет новых непрочитанных сообщений. 28 панфиловцев [военный, драма, 2016] BDRip 720p, Dub [iPad] [Лицензия]

salma3

0 | 0

2.39 ГБ


Начать новую тему Ответить на тему  [ 1 сообщение ] 




Для Мосгорсуда, Роскомнадзора и рекламодателей:: mosgorsud-torrent[собачка]yandex.ru
cron