Торрент файл
скачать торрент магнет ссылка Добавлен: 11 янв 2013, 22:21
Размер: 1.71 ГБ
Сидеров: 2
Личеров: 4
Автор

СообщениеДобавлено: 11 янв 2013, 22:21 

Не в сети
Супермодератор
Аватара пользователя
Дата регистрации:
11 апр 2010, 18:10
Спасибо: 5995 / 7
Сообщения: 56685
id="p-25224744-1">Такие разные близнецы / Джек и Джилл / Jack and Jill



Страна: США
Жанр: Комедия
Год выпуска: 2011
Продолжительность: 01:30:49
Перевод: Профессиональный (дублированный) Лицензия
Cубтитры: English
Режиссер: Деннис Дуган / Dennis Dugan
В ролях: Адам Сэндлер, Кэти Холмс, Аль Пачино, Роэн Чанд, Эудженио Дербез, Дэвид Спейд, Ник Свардсон, Тим Медоуз, Аллен Коверт
Описание: В центре сюжета — семейный мужчина по имени Джек, к которому на День Благодарения нагрянула в гости его взбалмошная сестра-близняшка Джилл. И ладно бы погостила да махнула ручкой, так ведь нет: Джилл прочно обосновалась в доме братца и, кажется, в ближайшее время не собирается уезжать.

Качество: HDRip
Исходник: http://rutracker.org/forum/viewtopic.php?t=3955052
Формат: m4v
Видео кодек: H.264
Аудио кодек: AAC
Видео: 1056x568, 2367 Kbps, 23,976 fps
Аудио Rus: 48 kHz, AAC, 2ch, 155 kbps
Аудио Eng: 48 kHz, AAC, 2ch, 166 kbps
MediaInfo
Код:
Код:
Полное имя : F:\iPad\Jack and Jill.m4v
Формат : MPEG-4
Идентификатор кодека : M4V
Размер файла : 1,71 Гбайт
Продолжительность : 1 ч. 30 м.
Общий поток : 2695 Кбит/сек
Название фильма : Такие разные близнецы
Исполнитель : Деннис Дуган
Жанр : Comedy
Дата записи : UTC 2011-11-11 08:00:00
Дата кодирования : UTC 2012-02-24 07:48:35
Дата пометки : UTC 2012-02-25 07:56:04
Обложка : Yes
desc : В центре сюжета — семейный мужчина по имени Джек, к которому на День Благодарения нагрянула в гости его взбалмошная сестра-близняшка Джилл. И ладно бы погостила да махнула ручкой, так ведь нет: Джилл прочно обосновалась в доме братца и, кажется, в бл
ldes : В центре сюжета — семейный мужчина по имени Джек, к которому на День Благодарения нагрянула в гости его взбалмошная сестра-близняшка Джилл. И ладно бы погостила да махнула ручкой, так ведь нет: Джилл прочно обосновалась в доме братца и, кажется, в ближайшее время не собирается уезжать.
hdvd : 1
stik : 0
cnID : 494221745
xid : iPad:vendor_id:2011-462883
iTunEXTC : mpaa|PG|200|
iTunMOVI : / / / / cast / / / name / Адам Сэндлер / / / name / Кэти Холмс / / / name / Аль Пачино / / / name / Роэн Чанд / / / name / Эудженио Дербез / / / name / Дэвид Спейд / / / name / Ник Свардсон / / / name / Тим Медоуз / / / name / Аллен Коверт / / / directors / / / name / Деннис Дуган / / / producers / / / name / Тодд Гарнер / / / name / Джек Джиррапуто / / / name / Адам Сэндлер / / / screenwriters / / / name / Стив Корен / / / name / Адам Сэндлер / / / name / Бен Зук / / / /
Видео
Идентификатор : 1
Формат : AVC
Формат/Информация : Advanced Video Codec
Профиль формата : [email protected]
Параметр CABAC формата : Да
Параметр ReFrames формата : 7 кадры
Идентификатор кодека : avc1
Идентификатор кодека/Информация : Advanced Video Coding
Продолжительность : 1 ч. 30 м.
Вид битрейта : Переменный
Битрейт : 2367 Кбит/сек
Максимальный битрейт : 10,6 Мбит/сек
Ширина : 1056 пикс.
Высота : 568 пикс.
Соотношение сторон : 1,859
Режим частоты кадров : Переменный
Частота кадров : 23,976 кадр/сек
Минимальная частота кадров : 6,024 кадр/сек
Максимальная частота кадров : 25,000 кадр/сек
Цветовое пространство : YUV
Подвыборка цветности : 4:2:0
Битовая глубина : 8 бит
Тип развёртки : Прогрессивная
Бит/(Пиксели*Кадры) : 0.165
Размер потока : 1,50 Гбайт (88%)
Заголовок : Jack.and.Jill.2011.Dt.НDRip.х264.potroks
Библиотека кодирования : x264 core 120 r2146M bcd41db
Настройки программы : cabac=1 / ref=8 / deblock=1:-2:-1 / analyse=0x3:0x133 / me=umh / subme=9 / psy=1 / psy_rd=1.00:0.00 / mixed_ref=1 / me_range=42 / chroma_me=1 / trellis=1 / 8x8dct=1 / cqm=0 / deadzone=21,13 / fast_pskip=0 / chroma_qp_offset=-2 / threads=8 / sliced_threads=0 / nr=0 / decimate=1 / interlaced=0 / bluray_compat=0 / constrained_intra=0 / bframes=14 / b_pyramid=1 / b_adapt=2 / b_bias=0 / direct=3 / weightb=1 / open_gop=0 / weightp=2 / keyint=230 / keyint_min=23 / scenecut=40 / intra_refresh=0 / rc_lookahead=100 / rc=2pass / mbtree=1 / bitrate=2367 / ratetol=1.0 / qcomp=0.60 / qpmin=10 / qpmax=51 / qpstep=4 / cplxblur=20.0 / qblur=0.6 / ip_ratio=1.35 / aq=1:1.20
Язык : English
Дата кодирования : UTC 2012-02-24 07:48:35
Дата пометки : UTC 2012-02-24 07:52:51
Аудио #1
Идентификатор : 2
Формат : AAC
Формат/Информация : Advanced Audio Codec
Профиль формата : LC
Идентификатор кодека : 40
Продолжительность : 1 ч. 30 м.
Вид битрейта : Переменный
Битрейт : 155 Кбит/сек
Максимальный битрейт : 212 Кбит/сек
Канал(ы) : 2 канала(ов)
Расположение каналов : Front: L R
Частота : 48,0 КГц
Метод сжатия : С потерями
Размер потока : 101 Мбайт (6%)
Заголовок : Russian
Язык : Russian
Дата кодирования : UTC 2012-02-24 07:52:31
Дата пометки : UTC 2012-02-24 07:52:51
Аудио #2
Идентификатор : 3
Формат : AAC
Формат/Информация : Advanced Audio Codec
Профиль формата : LC
Идентификатор кодека : 40
Продолжительность : 1 ч. 30 м.
Вид битрейта : Переменный
Битрейт : 166 Кбит/сек
Максимальный битрейт : 232 Кбит/сек
Канал(ы) : 2 канала(ов)
Расположение каналов : Front: L R
Частота : 48,0 КГц
Метод сжатия : С потерями
Размер потока : 108 Мбайт (6%)
Заголовок : Original
Язык : English
Дата кодирования : UTC 2012-02-24 07:52:41
Дата пометки : UTC 2012-02-24 07:52:51
Текст
Идентификатор : 4
Формат : Timed text
Режим смешивания : sbtl
Идентификатор кодека : tx3g
Продолжительность : 1 ч. 30 м.
Вид битрейта : Переменный
Битрейт : 122 бит/сек
Размер потока : 81,1 Кбайт (0%)
Язык : English
Дата кодирования : UTC 2012-02-24 07:52:50
Дата пометки : UTC 2012-02-24 07:52:51

Скриншоты



Вернуться к началу
 Профиль Отправить личное сообщение  
 
   Похожие торренты   Автор   Торрент   Размер 
В этой теме нет новых непрочитанных сообщений. Деннис-мучитель / Dennis the Menace [комедия, семейный, 1993] WEB-DLRip, Dub+Mvo+Sub

salma3

46 | 5

1.45 ГБ

В этой теме нет новых непрочитанных сообщений. Деннис-мучитель / Dennis the Menace [Комедия, семейный, 1993] WEB-DLRip-AVC, Dub

salma3

0 | 0

2.18 ГБ

В этой теме нет новых непрочитанных сообщений. Деннис-мучитель / Dennis the Menace [Комедия, семейный, 1993] WEB-DL 1080p, Dub

salma3

0 | 0

9.15 ГБ

В этой теме нет новых непрочитанных сообщений. Деннис-мучитель / Dennis the Menace [Комедия, семейный, 1993] WEB-DLRip 720p, Dub+Mvo+Sub

salma3

0 | 0

4.37 ГБ

В этой теме нет новых непрочитанных сообщений. Черный Джек / Black Jack [комедия, приключения, 1979] HDRip, Avo

salma3

245 | 70

1.46 ГБ

В этой теме нет новых непрочитанных сообщений. Святой Джек / Saint Jack [драма, 1979] HDRip, Mvo

salma3

81 | 22

1.45 ГБ

В этой теме нет новых непрочитанных сообщений. Билли Джек / Billy Jack [боевик, драма, 1971] HDRip, Avo

salma3

16 | 3

1.45 ГБ


Начать новую тему Ответить на тему  [ 1 сообщение ] 




Для Мосгорсуда, Роскомнадзора и рекламодателей:: mosgorsud-torrent[собачка]yandex.ru
cron