Торрент файл
скачать торрент магнет ссылка Добавлен: 11 янв 2013, 22:21
Размер: 2.5 ГБ
Сидеров: 2
Личеров: 4
Автор

СообщениеДобавлено: 11 янв 2013, 22:21 

Не в сети
Супермодератор
Аватара пользователя
Дата регистрации:
11 апр 2010, 18:10
Спасибо: 5995 / 7
Сообщения: 56685
id="p-25224744-1">Хищники / Predators
«Fear is Reborn»

Год выпуска: 2010
Страна: США
Жанр: фантастика, боевик, триллер, приключения
Продолжительность: 01:46:53
Перевод: профессиональный (полное дублирование)
Оригинальная аудиодорожка: английский
Русские субтитры: есть
Навигация по главам: есть

Режиссер: Нимрод Антал / Nimrod Antal

В ролях: Эдриан Броуди, Тофер Грейс, Алиси Брага, Уолтон Гоггинс, Олег Тактаров, Лоренс Фишбёрн, Дэнни Трехо, Луис Одзава Чангчьен, Махершалалхашбаз Али, Кэри Джонс

Описание:
Наемник Ройс невольно вынужден возглавить группу профессионалов, выполняющих загадочную миссию на неизвестной планете. За исключением опального доктора все они — хладнокровные убийцы: наемники, гангстеры, осужденные и участники отрядов смерти людские «хищники». Но когда их начинает систематически преследовать и истреблять невообразимое чудовище, становится очевидно, что теперь они в роли своих жертв.Доп. информация:

Качество: BDRip Исходник: (BDRemux)
Формат: M4V
Видео кодек: H.264
Аудио кодек: AAC
Видео: H.264, 1280x544, 23.976 fps, ~2990 kbps
Аудио 1: Русский: AAC, 48 kHz, 160 kbps avg
Аудио 2: Английский: AAC, 48 kHz, 160 kbps avg
Субтитры: русские, английские, английские (SDH)
MediaInfo
Код:
Код:
Predators.m4v
Формат : MPEG-4
Идентификатор кодека : M4V
Размер файла : 2,50 Гбайт
Продолжительность : 1 ч. 46 м.
Общий поток : 3352 Кбит/сек
Название фильма : Predators
Исполнитель : Nimrod Antal
Жанр : Action & Adventure
Дата записи : UTC 2010-07-09 07:00:00
Дата кодирования : UTC 2011-10-22 16:40:27
Дата пометки : UTC 2011-10-23 16:44:31
Обложка : Yes
desc : Наемник Ройс невольно вынужден возглавить группу профессионалов, выполняющих загадочную миссию на неизвестной планете.
ldes : Наемник Ройс невольно вынужден возглавить группу профессионалов, выполняющих загадочную миссию на неизвестной планете. За исключением опального доктора все они — хладнокровные убийцы: наемники, гангстеры, осужденные и участники отрядов смерти — людские «хищники».
hdvd : 1
stik : 9
cnID : 382395335
xid : iPad:vendor_id:2010-460523
iTunEXTC : mpaa|R|400|
iTunMOVI : / / / / cast / / / name / Эдриан Броуди / / / name / Тофер Грейс / / / name / Алиси Брага / / / name / Уолтон Гоггинс / / / name / Олег Тактаров / / / name / Лоренс Фишбёрн / / / name / Дэнни Трехо / / / name / Луис Одзава Чангчьен / / / name / Махершалалхашбаз Али / / / name / Кэри Джонс / / / directors / / / name / Нимрод Антал / / / producers / / / name / Элизабет Авеллан / / / name / Джон Дэвис / / / name / Роберт Родригес / / / screenwriters / / / name / Алекс Литвак / / / name / Майкл Финч / / / name / Джим Томас / / / /
Видео
Идентификатор : 1
Формат : AVC
Формат/Информация : Advanced Video Codec
Профиль формата : [email protected]
Параметр CABAC формата : Да
Параметр ReFrames формата : 9 кадры
Идентификатор кодека : avc1
Идентификатор кодека/Информация : Advanced Video Coding
Продолжительность : 1 ч. 46 м.
Вид битрейта : Переменный
Битрейт : 2990 Кбит/сек
Максимальный битрейт : 28,0 Мбит/сек
Ширина : 1280 пикс.
Высота : 544 пикс.
Соотношение сторон : 2,35:1
Режим частоты кадров : Постоянный
Частота кадров : 23,976 кадр/сек
Цветовое пространство : YUV
Подвыборка цветности : 4:2:0
Битовая глубина : 8 бит
Тип развёртки : Прогрессивная
Бит/(Пиксели*Кадры) : 0.179
Размер потока : 2,23 Гбайт (89%)
Заголовок : Predators
Библиотека кодирования : x264 core 105 r1732 2b04482
Настройки программы : cabac=1 / ref=9 / deblock=1:-2:-1 / analyse=0x3:0x133 / me=umh / subme=9 / psy=1 / psy_rd=1.00:0.00 / mixed_ref=1 / me_range=32 / chroma_me=1 / trellis=2 / 8x8dct=1 / cqm=0 / deadzone=21,11 / fast_pskip=0 / chroma_qp_offset=-2 / threads=6 / sliced_threads=0 / nr=0 / decimate=1 / interlaced=0 / constrained_intra=0 / bframes=8 / b_pyramid=2 / b_adapt=2 / b_bias=0 / direct=3 / weightb=1 / open_gop=0 / weightp=2 / keyint=250 / keyint_min=23 / scenecut=40 / intra_refresh=0 / rc_lookahead=70 / rc=2pass / mbtree=1 / bitrate=2990 / ratetol=1.0 / qcomp=0.65 / qpmin=10 / qpmax=51 / qpstep=4 / cplxblur=20.0 / qblur=0.5 / ip_ratio=1.40 / aq=2:0.90 / zones=145656,153760,q=30
Язык : English
Коэффициенты матрицы : BT.709-5, BT.1361, IEC 61966-2-4 709, SMPTE RP177
Аудио #1
Идентификатор : 2
Формат : AAC
Формат/Информация : Advanced Audio Codec
Профиль формата : LC
Идентификатор кодека : 40
Продолжительность : 1 ч. 46 м.
Вид битрейта : Переменный
Битрейт : 176 Кбит/сек
Максимальный битрейт : 219 Кбит/сек
Канал(ы) : 2 канала(ов)
Расположение каналов : Front: L R
Частота : 48,0 КГц
Метод сжатия : С потерями
Размер потока : 135 Мбайт (5%)
Заголовок : Russian
Язык : Russian
Аудио #2
Идентификатор : 3
Формат : AAC
Формат/Информация : Advanced Audio Codec
Профиль формата : LC
Идентификатор кодека : 40
Продолжительность : 1 ч. 46 м.
Вид битрейта : Переменный
Битрейт : 181 Кбит/сек
Максимальный битрейт : 233 Кбит/сек
Канал(ы) : 2 канала(ов)
Расположение каналов : Front: L R
Частота : 48,0 КГц
Метод сжатия : С потерями
Размер потока : 138 Мбайт (5%)
Заголовок : English
Язык : English
Текст #1
Идентификатор : 4
Формат : Timed text
Режим смешивания : sbtl
Идентификатор кодека : tx3g
Продолжительность : 1 ч. 40 м.
Вид битрейта : Переменный
Битрейт : 35 бит/сек
Размер потока : 25,7 Кбайт (0%)
Язык : Russian
Текст #2
Идентификатор : 5
Формат : Timed text
Режим смешивания : sbtl
Идентификатор кодека : tx3g
Продолжительность : 1 ч. 46 м.
Вид битрейта : Переменный
Битрейт : 26 бит/сек
Размер потока : 20,7 Кбайт (0%)
Язык : English
Текст #3
Идентификатор : 6
Формат : Timed text
Режим смешивания : sbtl
Идентификатор кодека : tx3g
Продолжительность : 1 ч. 46 м.
Вид битрейта : Переменный
Битрейт : 31 бит/сек
Размер потока : 24,6 Кбайт (0%)
Заголовок : SDH
Язык : English
Текст #4
Идентификатор : 7
Формат : Apple text
Идентификатор кодека : text
Продолжительность : 1 ч. 46 м.
Вид битрейта : Переменный
Битрейт : 1 бит/сек
Размер потока : 691 байт (0%)

Скриншоты



Вернуться к началу
 Профиль Отправить личное сообщение  
 
   Похожие торренты   Автор   Торрент   Размер 
В этой теме нет новых непрочитанных сообщений. Грабитель Виски / The Whisky Robber (Нимрод Антал / Nimród Antal) [2017г., Венгрия, боевик, HDRip] MVO

Alfredovich

173 | 45

1.37 ГБ

В этой теме нет новых непрочитанных сообщений. Контроль / Kontroll (Нимрод Антал / Nimród Antal) [2003г., Венгрия, триллер, драма, мелодрама, комедия, криминал, HDRip] avo

Alfredovich

49 | 3

745.85 МБ

В этой теме нет новых непрочитанных сообщений. Хищники / Predators [фантастика, боевик, триллер, приключения, 2010] BDRip HEVC 1080p, Dub

salma3

172 | 129

5.18 ГБ

В этой теме нет новых непрочитанных сообщений. Хищники / Predators [фантастика, боевик, триллер, 2010] BDRemux 1080p, Dub+Sub

salma3

69 | 43

27.43 ГБ

В этой теме нет новых непрочитанных сообщений. Хищники / Predators [Фантастика, боевик, триллер, 2010] HDTV 1080i, Dub [Open Matte]

salma3

8 | 2

14.7 ГБ

В этой теме нет новых непрочитанных сообщений. Уэйворд Пайнс / Wayward Pines [S1] (Зал Батманглидж, Тим Хантер, Нимрод Антал) [Драма, триллер, фантастика, 2015] WEB-DLRip, Mvo [Alexfilm]

Dracon

1225 | 1934

5.19 ГБ

В этой теме нет новых непрочитанных сообщений. Уэйуорд Пайнс / Wayward Pines [S01] (Зал Батманглидж, Тим Хантер, Нимрод Антал) [Драма, триллер, фантастика, 2015] WEB-DL 1080p, Mvo [NewStudio]

Dracon

61 | 109

17.58 ГБ


Начать новую тему Ответить на тему  [ 1 сообщение ] 




Для Мосгорсуда, Роскомнадзора и рекламодателей:: mosgorsud-torrent[собачка]yandex.ru
cron