Торрент файл
скачать торрент магнет ссылка Добавлен: 11 янв 2013, 22:21
Размер: 3.25 ГБ
Сидеров: 2
Личеров: 3
Автор

СообщениеДобавлено: 11 янв 2013, 22:21 

Не в сети
Супермодератор
Аватара пользователя
Дата регистрации:
11 апр 2010, 18:10
Спасибо: 5995 / 7
Сообщения: 56685
id="p-25224744-1">
Жизнь в розовом цвете / La môme / La Vie en Rose«The extraordinary life of Edith Piaf»


Страна: Франция, Великобритания, Чехия
Жанр: драма, биография, музыка
Год выпуска: 2007
Продолжительность: 02:20:45

Перевод: Профессиональный (многоголосый, закадровый)
Оригинальная аудиодорожка: Французский
Cубтитры: Русские, Английские, Французские
Режиссер: Оливье Даан / Olivier Dahan

В ролях: Марион Котийяр (Edith Piaf), Сильви Тестю (Mômone), Паскаль Греггори (Louis Barrier), Эмманюэль Сенье (Titine), Жан-Поль Рув (Louis Gassion), Жерар Депардье (Louis Leplée), Клотильда Куро (Anetta), Жан-Пьер Мартен (Marcel Cerdan), Катрин Аллегре (Louise), Марк Барбе (Raymond Asso), Каролин Сиоль (Marlene Dietrich, (as Caroline Silhol)), Мэнон Шевалье (Edith - 5 years old)

Описание: Жизнь Эдит Пиаф была похожа на сражение, каждый день ей приходилось бороться за право жить, петь и любить! Из трущоб Парижа она поднялась на подмостки Нью-Йоркских концертных залов и завладела сердцами всего мира. Ее друзьями были известнейшие люди того времени - Жан Кокто, Марлен Дитрих, Марсель Сердан. Выросшая в жуткой нищете, Пиаф достигла колоссального успеха. Но, взлетев на необозримую высоту, она не смогла не обломать крылья…
Рейтинг
imdb.com: 7.60 (29 776)
MPAA: PG-13 - Детям до 13 лет просмотр не желателен
Качество видео: BDRip - Исходник BD Remux
Формат видео: m4v
Видео кодек: H.264
Аудио кодек: AAC
Видео: 1280х720 (2.40:1), 23,976 fps, H.264 2950 kbps avg, 0.134 bit/pixel
Аудио #1: Russian, 48,0 kHz, AAC LC, 2 ch, 144 kbps avg | MVO
Аудио #2: French, 48,0 kHz, AAC LC, 2 ch, 136 kbps avg | Original
MediaInfo
Код:
Код:
General
Complete name                            : Z:\Torrent\iPad3\La Vie en Rose\La.Vie.en.Rose.2007.BDRip.m4v
Format                                   : MPEG-4
Codec ID                                 : M4V
File size                                : 3.25 GiB
Duration                                 : 2h 20mn
Overall bit rate mode                    : Variable
Overall bit rate                         : 3 302 Kbps
Movie name                               : Жизнь в розовом цвете
Performer                                : Оливье Даан
Genre                                    : драма, биография, музыка
Recorded date                            : 2007-02-08T08:00:00Z
Encoded date                             : UTC 2012-02-04 06:41:41
Tagged date                              : UTC 2012-02-05 06:46:06
Writing application                      : MkvToMp4 [www.mkvtomp4.ru] version 0.218
Cover                                    : Yes
desc                                     : Жизнь Эдит Пиаф была похожа на сражение, каждый день ей приходилось бороться за право жить, петь и любить! Из трущоб Парижа она поднялась на подмостки Нью-Йоркских концертных залов и завладела сердцами всего мира.
ldes                                     : Жизнь Эдит Пиаф была похожа на сражение, каждый день ей приходилось бороться за право жить, петь и любить! Из трущоб Парижа она поднялась на подмостки Нью-Йоркских концертных залов и завладела сердцами всего мира. Ее друзьями были известнейшие люди того времени — Жан Кокто, Марлен Дитрих, Марсель Сердан. Выросшая в жуткой нищете, Пиаф достигла колоссального успеха. Но, взлетев на необозримую высоту, она не смогла не обломать крылья…
hdvd                                     : 1
stik                                     : 9
akID                                     : -1
sfID                                     : 0
cnID                                     : 415549138
xid                                      : iPad:vendor_id:2007-197134
iTunEXTC                                 : mpaa|PG-13|300|
iTunMOVI                                 : <?xml version="1.0" encoding="UTF-8"?> / <!DOCTYPE plist PUBLIC "-/Apple/DTD PLIST 1.0/EN" "http:/www.apple.com/DTDs/PropertyList-1.0.dtd"> / <plist version="1.0"> /  <dict> /   <key>cast</key> /   <array> /    <dict> /     <key>name</key> /     <string>Марион Котийяр</string> /    </dict> /    <dict> /     <key>name</key> /     <string>Сильви Тестю</string> /    </dict> /    <dict> /     <key>name</key> /     <string>Паскаль Греггори</string> /    </dict> /    <dict> /     <key>name</key> /     <string>Эмманюэль Сенье</string> /    </dict> /    <dict> /     <key>name</key> /     <string>Жан-Поль Рув</string> /    </dict> /    <dict> /     <key>name</key> /     <string>Жерар Депардье</string> /    </dict> /    <dict> /     <key>name</key> /     <string>Клотильда Куро</string> /    </dict> /    <dict> /     <key>name</key> /     <string>Жан-Пьер Мартен</string> /    </dict> /    <dict> /     <key>name</key> /     <string>Катрин Аллегре</string> /    </dict> /    <dict> /     <key>name</key> /     <string>Марк Барбэ</string> /    </dict> /   </array> /   <key>directors</key> /   <array> /    <dict> /     <key>name</key> /     <string>Оливье Даан</string> /    </dict> /   </array> /   <key>producers</key> /   <array> /    <dict> /     <key>name</key> /     <string>Ален Голдман</string> /    </dict> /    <dict> /     <key>name</key> /     <string>Тимоти Баррилл</string> /    </dict> /    <dict> /     <key>name</key> /     <string>Эксел Декис</string> /    </dict> /   </array> /   <key>screenwriters</key> /   <array> /    <dict> /     <key>name</key> /     <string>Оливье Даан</string> /    </dict> /    <dict> /     <key>name</key> /     <string>Изабелль Собельман</string> /    </dict> /   </array> /  </dict> / </plist>
Video
ID                                       : 1
Format                                   : AVC
Format/Info                              : Advanced Video Codec
Format profile                           : [email protected]
Format settings, CABAC                   : Yes
Format settings, ReFrames                : 11 frames
Codec ID                                 : avc1
Codec ID/Info                            : Advanced Video Coding
Duration                                 : 2h 20mn
Bit rate                                 : 2 950 Kbps
Maximum bit rate                         : 25.4 Mbps
Width                                    : 1 280 pixels
Height                                   : 720 pixels
Display aspect ratio                     : 16:9
Frame rate mode                          : Constant
Frame rate                               : 23.976 fps
Color space                              : YUV
Chroma subsampling                       : 4:2:0
Bit depth                                : 8 bits
Scan type                                : Progressive
Bits/(Pixel*Frame)                       : 0.134
Stream size                              : 2.90 GiB (89%)
Writing library                          : x264 core 119 r2106 07efeb4
Encoding settings                        : cabac=1 / ref=11 / deblock=1:-3:-2 / analyse=0x3:0x113 / me=umh / subme=9 / psy=1 / psy_rd=1.00:0.07 / mixed_ref=1 / me_range=36 / chroma_me=1 / trellis=2 / 8x8dct=1 / cqm=0 / deadzone=21,11 / fast_pskip=0 / chroma_qp_offset=-3 / threads=12 / sliced_threads=0 / nr=0 / decimate=0 / interlaced=0 / bluray_compat=0 / constrained_intra=0 / bframes=8 / b_pyramid=2 / b_adapt=2 / b_bias=0 / direct=3 / weightb=1 / open_gop=0 / weightp=2 / keyint=250 / keyint_min=23 / scenecut=40 / intra_refresh=0 / rc=2pass / mbtree=0 / bitrate=2950 / ratetol=1.0 / qcomp=0.60 / qpmin=0 / qpmax=69 / qpstep=4 / cplxblur=20.0 / qblur=0.5 / ip_ratio=1.40 / pb_ratio=1.30 / aq=2:0.80
Language                                 : English
Encoded date                             : UTC 2012-02-04 06:41:41
Tagged date                              : UTC 2012-02-04 06:44:06
Audio #1
ID                                       : 2
Format                                   : AAC
Format/Info                              : Advanced Audio Codec
Format profile                           : LC
Codec ID                                 : 40
Duration                                 : 2h 20mn
Bit rate mode                            : Variable
Bit rate                                 : 174 Kbps
Maximum bit rate                         : 220 Kbps
Channel(s)                               : 2 channels
Channel positions                        : Front: L R
Sampling rate                            : 48.0 KHz
Compression mode                         : Lossy
Stream size                              : 175 MiB (5%)
Title                                    : MVO
Language                                 : Russian
Encoded date                             : UTC 2012-02-04 06:43:44
Tagged date                              : UTC 2012-02-04 06:44:06
Audio #2
ID                                       : 3
Format                                   : AAC
Format/Info                              : Advanced Audio Codec
Format profile                           : LC
Codec ID                                 : 40
Duration                                 : 2h 20mn
Bit rate mode                            : Variable
Bit rate                                 : 169 Kbps
Maximum bit rate                         : 231 Kbps
Channel(s)                               : 2 channels
Channel positions                        : Front: L R
Sampling rate                            : 48.0 KHz
Compression mode                         : Lossy
Stream size                              : 170 MiB (5%)
Title                                    : Original
Language                                 : French
Encoded date                             : UTC 2012-02-04 06:43:54
Tagged date                              : UTC 2012-02-04 06:44:06
Text #1
ID                                       : 4
Format                                   : Timed text
Muxing mode                              : sbtl
Codec ID                                 : tx3g
Duration                                 : 2h 15mn
Bit rate mode                            : Variable
Bit rate                                 : 70 bps
Stream size                              : 69.1 KiB (0%)
Language                                 : Russian
Encoded date                             : UTC 2012-02-04 06:44:05
Tagged date                              : UTC 2012-02-04 06:44:06
Text #2
ID                                       : 5
Format                                   : Timed text
Muxing mode                              : sbtl
Codec ID                                 : tx3g
Duration                                 : 2h 14mn
Bit rate mode                            : Variable
Bit rate                                 : 73 bps
Stream size                              : 72.6 KiB (0%)
Language                                 : French
Encoded date                             : UTC 2012-02-04 06:44:05
Tagged date                              : UTC 2012-02-04 06:44:06
Text #3
ID                                       : 6
Format                                   : Timed text
Muxing mode                              : sbtl
Codec ID                                 : tx3g
Duration                                 : 2h 14mn
Bit rate mode                            : Variable
Bit rate                                 : 42 bps
Stream size                              : 41.4 KiB (0%)
Language                                 : English
Encoded date                             : UTC 2012-02-04 06:44:06
Tagged date                              : UTC 2012-02-04 06:44:06

x264 log
Код:
Код:
x264 [info]: frame I:1201  Avg QP:16.01  size: 82193
x264 [info]: frame P:44125 Avg QP:17.95  size: 29092
x264 [info]: frame B:157175 Avg QP:20.92  size: 11006
x264 [info]: consecutive B-frames:  2.7%  2.8%  4.8% 22.1%  9.4% 47.1%  3.2%  6.5%  1.4%
x264 [info]: mb I  I16..4: 27.4% 63.8%  8.8%
x264 [info]: mb P  I16..4:  4.5%  7.1%  0.6%  P16..4: 36.6% 17.7% 10.0%  0.0%  0.0%    skip:23.6%
x264 [info]: mb B  I16..4:  0.1%  0.4%  0.0%  B16..8: 35.8%  7.8%  1.8%  direct: 4.7%  skip:49.2%  L0:45.3% L1:45.7% BI: 8.9%
x264 [info]: 8x8 transform intra:60.2% inter:66.3%
x264 [info]: direct mvs  spatial:98.4% temporal:1.6%
x264 [info]: coded y,uvDC,uvAC intra: 62.4% 70.0% 55.4% inter: 21.4% 26.5% 10.6%
x264 [info]: i16 v,h,dc,p: 72% 17%  3%  8%
x264 [info]: i8 v,h,dc,ddl,ddr,vr,hd,vl,hu:  9%  8%  6% 10% 15% 14% 14% 12% 12%
x264 [info]: i4 v,h,dc,ddl,ddr,vr,hd,vl,hu: 10% 10%  5%  9% 15% 14% 14% 11% 12%
x264 [info]: i8c dc,h,v,p: 51% 18% 15% 16%
x264 [info]: Weighted P-Frames: Y:11.3% UV:7.2%
x264 [info]: ref P L0: 43.3%  7.9% 19.0%  7.4%  5.9%  4.4%  3.9%  2.2%  2.1%  1.8%  1.8%  0.3%  0.0%
x264 [info]: ref B L0: 71.4% 12.3%  5.9%  3.1%  2.2%  1.8%  1.5%  0.9%  0.6%  0.3%
x264 [info]: ref B L1: 92.7%  7.3%
x264 [info]: kb/s:2947.99

Скриншоты

Скриншоты с iPad




Вернуться к началу
 Профиль Отправить личное сообщение  
 
   Похожие торренты   Автор   Торрент   Размер 
В этой теме нет новых непрочитанных сообщений. Дикая жизнь / Das wilde Leben [драма, комедия, биография, музыка, 2007] DVDRip, Avo

salma3

32 | 3

1.46 ГБ

В этой теме нет новых непрочитанных сообщений. Чудо на Гудзоне / Sully [драма, биография, 2016] BDRip 720p, Dub [iPad] [Лицензия]

salma3

0 | 0

1.79 ГБ

В этой теме нет новых непрочитанных сообщений. Храброе сердце / Braveheart [драма, военный, биография, история, 1995] BDRip 720p, Dub [iPad]

salma3

10 | 1

4.92 ГБ

В этой теме нет новых непрочитанных сообщений. Итальянец / L'Italien (Оливье Барру / Olivier Barroux) [2010г., Франция, драма, комедия, HDRip] MVO

Alfredovich

391 | 52

1.46 ГБ

В этой теме нет новых непрочитанных сообщений. Замок из песка / Les châteaux de sable (Оливье Джехан / Olivier Jahan) [2015г., Франция, драма, HDTVRip] sub

Alfredovich

0 | 0

1.53 ГБ

В этой теме нет новых непрочитанных сообщений. Господин Поль / Monsieur Paul (Оливье Шацки / Olivier Schatzky) [2015г., Франция, политический детектив, драма, HDTVRip] sub

Alfredovich

0 | 1

1.38 ГБ

В этой теме нет новых непрочитанных сообщений. Бугимен 2 / Boogeyman 2 [ужасы, триллер, драма, 2007] BDRip 720p, Dub [iPad]

salma3

0 | 0

1.67 ГБ


Начать новую тему Ответить на тему  [ 1 сообщение ] 




Для Мосгорсуда, Роскомнадзора и рекламодателей:: mosgorsud-torrent[собачка]yandex.ru
cron