Торрент файл
скачать торрент магнет ссылка Добавлен: 11 янв 2013, 22:20
Размер: 2.04 ГБ
Сидеров: 3
Личеров: 4
Автор

СообщениеДобавлено: 11 янв 2013, 22:20 

Не в сети
Супермодератор
Аватара пользователя
Дата регистрации:
11 апр 2010, 18:10
Спасибо: 5995 / 7
Сообщения: 56685
id="p-25224744-1">«Весёлые» каникулы / Get the Gringo

«Plan your getaway»
Год выпуска: 2012
Страна: США
Жанр: боевик, комедия
Продолжительность: 01:35:59.754
Перевод : профессиональный (многоголосый, полное дублирование)
Режиссёр: Адриан Грюнберг / Adrian Grunberg
В ролях: Мэл Гибсон, Кевин Эрнандез, Долорес Эредия, Хесус Очоа, Петер Стормаре, Дин Норрис, Боб Гантон, Скотт Коэн, София Сиснига, Патрик Бошо
Описание:
Лента расскажет о пойманном мексиканскими властями преступнике, заключенном в полную наркотиков и насилия тюрьму...

Качество: исходник Blu-ray Disk
Формат: *.m4v
Видео кодек: H.264
Аудио кодек: ААС
Видео: 1024х432 / 2700 kbps / 23,976 fps / 0.255
Аудио 1: русский / AAC 2.0 / 160 kbps / 48 kHz / DUB
Аудио 2: английский / AAC 2.0 / 160 kbps / 48 kHz
Субтитры: нет
Вшитая обложка: есть
Доп. теги (режиссёр, актёры и т.д.): прописаны
Главы: есть
MediaInfo

Общее
Полное имя : D:\WORK\GET.THE.GRINGO\GET.THE.GRINGO.2012.1024.iPad.Rus.Eng.m4v
Формат : MPEG-4
Идентификатор кодека : M4V
Размер файла : 2,04 Гбайт
Продолжительность : 1 ч. 35 м.
Режим общего битрейта : Переменный
Общий поток : 3043 Кбит/сек
Название фильма : «Весёлые» каникулы / Get the Gringo
Исполнитель : Адриан Грюнберг / Adrian Grunberg
Жанр : Action & Adventure
Дата записи : UTC 2012-05-01 07:00:00
Дата кодирования : UTC 2012-07-09 09:56:57
Дата пометки : UTC 2012-07-09 10:19:03
Программа кодирования : HandBrake 4598svn 2012041401
Правообладатель : © Icon Productions
Обложка : Yes
Примечание : «Plan your getaway»
desc : Лента расскажет о пойманном мексиканскими властями преступнике, заключенном в полную наркотиков и насилия тюрьму…
ldes : Лента расскажет о пойманном мексиканскими властями преступнике, заключенном в полную наркотиков и насилия тюрьму…
hdvd : 1
stik : 9
rtng : 0
cnID : 526089230
xid : iPad:vendor_id:2012-492171
iTunEXTC : mpaa|R|400|
iTunMOVI : <?xml version="1.0" encoding="UTF-8"?> / <!DOCTYPE plist PUBLIC "-/Apple/DTD PLIST 1.0/EN" "http://www.apple.com/DTDs/PropertyList-1.0.dtd"> / <plist version="1.0"> / <dict> / <key>cast</key> / <array> / <dict> / <key>name</key> / <string>Мэл Гибсон</string> / </dict> / <dict> / <key>name</key> / <string>Кевин Эрнандез</string> / </dict> / <dict> / <key>name</key> / <string>Долорес Эредия</string> / </dict> / <dict> / <key>name</key> / <string>Хесус Очоа</string> / </dict> / <dict> / <key>name</key> / <string>Петер Стормаре</string> / </dict> / <dict> / <key>name</key> / <string>Дин Норрис</string> / </dict> / <dict> / <key>name</key> / <string>Боб Гантон</string> / </dict> / <dict> / <key>name</key> / <string>Скотт Коэн</string> / </dict> / <dict> / <key>name</key> / <string>София Сиснига</string> / </dict> / <dict> / <key>name</key> / <string>Патрик Бошо</string> / </dict> / </array> / <key>directors</key> / <array> / <dict> / <key>name</key> / <string>Адриан Грюнберг / Adrian Grunberg</string> / </dict> / </array> / <key>producers</key> / <array> / <dict> / <key>name</key> / <string>Мэл Гибсон</string> / </dict> / <dict> / <key>name</key> / <string>Брюс Дэвей</string> / </dict> / <dict> / <key>name</key> / <string>Стэйси Перски</string> / </dict> / </array> / <key>screenwriters</key> / <array> / <dict> / <key>name</key> / <string>Мэл Гибсон</string> / </dict> / <dict> / <key>name</key> / <string>Адриан Грюнберг</string> / </dict> / <dict> / <key>name</key> / <string>Стэйси Перски</string> / </dict> / </array> / <key>studio</key> / <string>© Icon Productions</string> / </dict> / </plist>
Видео #1
Идентификатор : 1
Формат : AVC
Формат/Информация : Advanced Video Codec
Профиль формата : [email protected]
Параметр CABAC формата : Да
Параметр ReFrames формата : 10 кадров
Идентификатор кодека : avc1
Идентификатор кодека/Информация : Advanced Video Coding
Продолжительность : 1 ч. 35 м.
Вид битрейта : Переменный
Битрейт : 2703 Кбит/сек
Ширина : 1024 пикселя
Высота : 432 пикселя
Соотношение сторон : 2,40:1
Режим частоты кадров : Переменный
Частота кадров : 23,976 кадра/сек
Минимальная частота кадров : 23,952 кадра/сек
Максимальная частота кадров : 23,981 кадра/сек
Цветовое пространство : YUV
Субдискретизация насыщенности : 4:2:0
Битовая глубина : 8 бит
Тип развёртки : Прогрессивная
Бит/(Пиксели*Кадры) : 0.255
Размер потока : 1,81 Гбайт (89%)
Библиотека кодирования : x264 core 125 r2200 999b753
Настройки программы : cabac=1 / ref=11 / deblock=1:-3:-3 / analyse=0x3:0x133 / me=umh / subme=9 / psy=1 / psy_rd=1.00:0.15 / mixed_ref=1 / me_range=32 / chroma_me=1 / trellis=2 / 8x8dct=1 / cqm=0 / deadzone=21,11 / fast_pskip=1 / chroma_qp_offset=-3 / threads=18 / lookahead_threads=3 / sliced_threads=0 / nr=0 / decimate=1 / interlaced=0 / bluray_compat=0 / constrained_intra=0 / bframes=12 / b_pyramid=1 / b_adapt=2 / b_bias=0 / direct=1 / weightb=1 / open_gop=0 / weightp=2 / keyint=240 / keyint_min=23 / scenecut=40 / intra_refresh=0 / rc_lookahead=60 / rc=crf / mbtree=0 / crf=18.0 / qcomp=0.65 / qpmin=0 / qpmax=69 / qpstep=4 / vbv_maxrate=50000 / vbv_bufsize=62500 / crf_max=0.0 / nal_hrd=none / ip_ratio=1.40 / pb_ratio=1.20 / aq=2:0.90
Язык : English
Дата кодирования : UTC 2012-07-09 09:56:57
Дата пометки : UTC 2012-07-09 10:06:46
Коэффициенты матрицы : BT.709-5, BT.1361, IEC 61966-2-4 709, SMPTE RP177
Видео #2
Идентификатор : 5
Формат : JPEG
Идентификатор кодека : jpeg
Продолжительность : 1 ч. 35 м.
Вид битрейта : Переменный
Битрейт : 1339 бит/сек
Ширина : 640 пикселей
Высота : 270 пикселей
Соотношение сторон : 2,40:1
Режим частоты кадров : Переменный
Частота кадров : 0,004 кадр/сек
Минимальная частота кадров : 0,002 кадр/сек
Максимальная частота кадров : 0,007 кадр/сек
Цветовое пространство : YUV
Субдискретизация насыщенности : 4:2:0
Битовая глубина : 8 бит
Метод сжатия : С потерями
Бит/(Пиксели*Кадры) : 1.937
Размер потока : 981 Кбайт (0%)
Язык : English
Дата кодирования : UTC 2012-07-09 10:07:45
Дата пометки : UTC 2012-07-09 10:07:45
Аудио #1
Идентификатор : 2
Формат : AAC
Формат/Информация : Advanced Audio Codec
Профиль формата : LC
Идентификатор кодека : 40
Продолжительность : 1 ч. 35 м.
Вид битрейта : Переменный
Битрейт : 165 Кбит/сек
Максимальный битрейт : 254 Кбит/сек
Каналы : 2 канала
Расположение каналов : Front: L R
Частота : 48,0 КГц
Метод сжатия : С потерями
Задержка видео : -13 с.
Размер потока : 113 Мбайт (5%)
Язык : Russian
Дата кодирования : UTC 2012-07-09 09:56:58
Дата пометки : UTC 2012-07-09 10:06:59
Аудио #2
Идентификатор : 3
Формат : AAC
Формат/Информация : Advanced Audio Codec
Профиль формата : LC
Идентификатор кодека : 40
Продолжительность : 1 ч. 35 м.
Вид битрейта : Переменный
Битрейт : 163 Кбит/сек
Максимальный битрейт : 278 Кбит/сек
Каналы : 2 канала
Расположение каналов : Front: L R
Частота : 48,0 КГц
Метод сжатия : С потерями
Задержка видео : -13 с.
Размер потока : 112 Мбайт (5%)
Язык : English
Дата кодирования : UTC 2012-07-09 09:56:59
Дата пометки : UTC 2012-07-09 10:07:31
Текст
Идентификатор : 4
Формат : Apple text
Идентификатор кодека : text
Продолжительность : 1 ч. 35 м.
Вид битрейта : Переменный
Битрейт : 1 бит/сек
Задержка видео : -13 с.
Размер потока : 567 байт (0%)
Язык : English
Дата кодирования : UTC 2012-07-09 10:07:31
Дата пометки : UTC 2012-07-09 10:07:31
Меню
00:00:00.000 : Chapter 1
00:06:04.781 : Chapter 2
00:10:42.100 : Chapter 3
00:13:47.577 : Chapter 4
00:16:02.795 : Chapter 5
00:18:40.745 : Chapter 6
00:23:49.970 : Chapter 7
00:26:29.463 : Chapter 8
00:30:06.263 : Chapter 9
00:35:37.594 : Chapter 10
00:38:36.231 : Chapter 11
00:40:50.698 : Chapter 12
00:45:16.130 : Chapter 13
00:51:05.479 : Chapter 14
00:54:01.280 : Chapter 15
00:57:31.198 : Chapter 16
01:00:53.400 : Chapter 17
01:05:44.274 : Chapter 18
01:09:17.862 : Chapter 19
01:13:33.159 : Chapter 20
01:18:43.093 : Chapter 21
01:23:20.704 : Chapter 22
01:25:49.186 : Chapter 23
01:28:19.377 : Chapter 24
x264.log
-x264 [info]: frame I:1366 Avg QP:16.12 size: 69427
-x264 [info]: frame P:33631 Avg QP:18.04 size: 24878
-x264 [info]: frame B:103099 Avg QP:19.49 size: 9838
-x264 [info]: consecutive B-frames: 3.1% 4.1% 13.6% 27.1% 17.5% 25.8% 3.8% 0.8% 1.2% 0.4% 0.4% 0.6% 1.4%
-x264 [info]: mb I I16..4: 13.4% 64.4% 22.2%
-x264 [info]: mb P I16..4: 2.3% 14.7% 2.0% P16..4: 35.4% 20.8% 13.0% 1.5% 0.4% skip:10.1%
-x264 [info]: mb B I16..4: 0.1% 1.1% 0.2% B16..8: 38.2% 11.7% 3.7% direct: 8.4% skip:36.7% L0:39.2% L1:43.6% BI:17.1%
-x264 [info]: 8x8 transform intra:75.7% inter:56.3%
-x264 [info]: coded y,uvDC,uvAC intra: 88.8% 88.5% 75.8% inter: 31.6% 29.5% 7.3%
-x264 [info]: i16 v,h,dc,p: 25% 11% 15% 49%
-x264 [info]: i8 v,h,dc,ddl,ddr,vr,hd,vl,hu: 12% 11% 7% 8% 12% 13% 12% 12% 13%
-x264 [info]: i4 v,h,dc,ddl,ddr,vr,hd,vl,hu: 10% 9% 4% 9% 15% 14% 14% 11% 13%
-x264 [info]: i8c dc,h,v,p: 41% 22% 19% 18%
-x264 [info]: Weighted P-Frames: Y:4.4% UV:1.4%
-x264 [info]: ref P L0: 57.9% 14.1% 12.0% 5.2% 3.3% 2.4% 1.8% 1.1% 1.1% 0.9% 0.1% 0.0%
-x264 [info]: ref B L0: 83.8% 7.9% 3.3% 1.8% 1.1% 0.8% 0.6% 0.4% 0.3%
-x264 [info]: ref B L1: 93.9% 6.1%
-x264 [info]: kb/s:2702.66
Скриншоты
Теги
Media Type: Movie HD 720p
XID: iPad:vendor_id:2012-492171
Content ID: 526089230
Copyright: © Icon Productions
ScreenWriters: Мэл Гибсон, Адриан Грюнберг, Стэйси Перски
Producers: Мэл Гибсон, Брюс Дэвей, Стэйси Перски
Director: Адриан Грюнберг / Adrian Grunberg
Cast: Мэл Гибсон, Кевин Эрнандез, Долорес Эредия, Хесус Очоа, Петер Стормаре, Дин Норрис, Боб Гантон, Скотт Коэн, София Сиснига, Патрик Бошо
Rating: R
Long Description: Лента расскажет о пойманном мексиканскими властями преступнике, заключенном в полную наркотиков и насилия тюрьму…
Description: Лента расскажет о пойманном мексиканскими властями преступнике, заключенном в полную наркотиков и насилия тюрьму…
Release Date: 2012-05-01T07:00:00Z
Genre: Action & Adventure
Artist: Адриан Грюнберг / Adrian Grunberg
Name: «Весёлые» каникулы / Get the Gringo
Comments: «Plan your getaway»
Content Rating: 0
Доп инфо &amp; Thx
Релиз от: Релиз группа:



Вернуться к началу
 Профиль Отправить личное сообщение  
 
   Похожие торренты   Автор   Торрент   Размер 
В этой теме нет новых непрочитанных сообщений. «Весёлые» каникулы / Get the Gringo [Боевик, триллер, драма, 2012] BDRip 1080p, Dub+Sub

salma3

0 | 0

11.73 ГБ

В этой теме нет новых непрочитанных сообщений. Другой брат / El otro hermano (Адриан Каэтано / Israel Adrián Caetano) [2017г., Аргентина, триллер, WEB-DLRip] MVO

Alfredovich

23 | 3

1.46 ГБ

В этой теме нет новых непрочитанных сообщений. Коллекционер 2 / The Collection [ужасы, боевик, триллер, 2012] BDRip 720p, Dub [iPad]

salma3

0 | 0

1.73 ГБ

В этой теме нет новых непрочитанных сообщений. Третий лишний / Ted [фэнтези, комедия, 2012] BDRip 720p, Dub [iPad] [Лицензия]

salma3

16 | 10

2.67 ГБ

В этой теме нет новых непрочитанных сообщений. Человек-муравей / Ant-Man [фантастика, боевик, комедия, 2015] BDRip 720p, Dub [iPad] [Лицензия]

salma3

85 | 19

2.15 ГБ

В этой теме нет новых непрочитанных сообщений. Джанго освобожденный / Django Unchained [драма, вестерн, приключения, комедия, 2012] BDRip 720p, Dub [iPad] [Лицензия]

salma3

96 | 10

3.47 ГБ

В этой теме нет новых непрочитанных сообщений. [CastingCouch-X.com] Adrian Hush - Adrian Hush (23.02.2018) [2018 г., Teen, Blowjob, POV, Gonzo, Hardcore, All Sex, Straight, Casting]

salma3

38 | 13

370.62 МБ


Начать новую тему Ответить на тему  [ 1 сообщение ] 




Для Мосгорсуда, Роскомнадзора и рекламодателей:: mosgorsud-torrent[собачка]yandex.ru
cron