Торрент файл
скачать торрент магнет ссылка Добавлен: 11 янв 2013, 22:19
Размер: 893.97 МБ
Сидеров: 0
Личеров: 3
Автор

СообщениеДобавлено: 11 янв 2013, 22:19 

Не в сети
Супермодератор
Аватара пользователя
Дата регистрации:
11 апр 2010, 18:10
Спасибо: 5996 / 7
Сообщения: 56684
id="p-25224744-1">Красота по-американски / American Beauty
Год выпуска: 1999
Страна: USA
Жанр: Дрма
Продолжительность: 02:01:23.
Перевод: Профессиональный (многоголосый, закадровый)
Режиссер: Сэм Мендес / Sam Mendes

В ролях: Кевин Спейси / Kevin Spacey, Аннет Беннинг / Annette Bening, Питер Галлахер / Peter Gallagher, Тора Бирч / Thora Birch, Уэс Бентли / Wes Bentley, Мена Сувари / Mena Suvari, Крис Купер / Chris Cooper
Описание: Лестер Бернэм переживает кризис среднего возраста. Его не уважают и не ценят на работе, а от счастливой семьи осталась лишь видимость. У жены Кэролайн страстный роман с коллегой по работе, а угрюмая дочь-подросток Джейн увлечена соседским парнем, побывавшим в психиатрической больнице.
Терзаемый душевными муками, Лестер впадает в глубокую депрессию. Но неожиданно для себя влюбляется в одноклассницу дочери Анджелу. Эта пылкая страсть дает Лестеру мощный жизненный импульс. Он ощущает прилив сил и желаний, и готов снова радоваться красоте.

Доп. информация:
5 ПРЕМИЙ АМЕРИКАНСКОЙ КИНОАКАДЕМИИ «ОСКАР» (2000г.):
«ЛУЧШИЙ ФИЛЬМ ГОДА»
«ЛУЧШИЙ РЕЖИССЕР» - Сэм Мендез
«ЛУЧШИЙ АКТЕР» - Кэвин Спейси
«ЛУЧШИЙ СЦЕНАРИЙ» - Алан Болл
«ЛУЧШИЙ ОПЕРАТОР» - Конрад Л. Холл
Качество: HDTVRip
Формат: MP4
Видео кодек: H.264
Аудио кодек: AAC
Видео: H.264 576x320 896Kbps 23.976 fps
Аудио: 48.0 KHz AAC 2ch 128kbps
Тех.данные
Video
ID : 1
Format : AVC
Format/Info : Advanced Video Codec
Format profile : [email protected]
Format settings, CABAC : No
Format settings, ReFrames : 2 frames
Codec ID : avc1
Codec ID/Info : Advanced Video Coding
Duration : 2h 1mn
Bit rate mode : Variable
Bit rate : 896 Kbps
Width : 576 pixels
Height : 320 pixels
Display aspect ratio : 16/9
Frame rate mode : Variable
Frame rate : 23.976 fps
Minimum frame rate : 11.991 fps
Maximum frame rate : 23.988 fps
Resolution : 24 bits
Colorimetry : 4:2:0
Scan type : Progressive
Bits/(Pixel*Frame) : 0.203
Stream size : 777 MiB (87%)
Writing library : x264 core 65
Audio
ID : 2
Format : AAC
Format/Info : Advanced Audio Codec
Format version : Version 4
Format profile : LC
Format settings, SBR : No
Codec ID : 40
Duration : 2h 1mn
Bit rate mode : Variable
Bit rate : 128 Kbps
Maximum bit rate : 170 Kbps
Channel(s) : 2 channels
Channel positions : L R
Sampling rate : 48.0 KHz
Resolution : 16 bits
Stream size : 111 MiB (12%)
Encoded date : UTC 2009-08-04 14:05:09
Tagged date : UTC 2009-08-04 15:15:30
Скриншоты






Вернуться к началу
 Профиль Отправить личное сообщение  
 
   Похожие торренты   Автор   Торрент   Размер 
В этой теме нет новых непрочитанных сообщений. Естественная Красота / Natural Beauty (2017) WEB-DL

salma3

16 | 0

1.93 ГБ

В этой теме нет новых непрочитанных сообщений. Призрачная красота / Collateral Beauty [драма, 2016] BDRip-AVC, Dub+Sub [Лицензия]

salma3

325 | 33

2.18 ГБ

В этой теме нет новых непрочитанных сообщений. Призрачная красота / Collateral Beauty [Драма, 2016] HDRip, Dub [КПК] [iTunes]

salma3

47 | 27

367.01 МБ

В этой теме нет новых непрочитанных сообщений. Призрачная красота / Collateral Beauty [драма, 2016] BDRip-AVC, Dub+Sub [Лицензия]

salma3

288 | 33

1.46 ГБ

В этой теме нет новых непрочитанных сообщений. Красота по-английски / Stage Beauty [Драма, 2004] BDRip 720р, Mvo

salma3

48 | 23

7.32 ГБ

В этой теме нет новых непрочитанных сообщений. Призрачная красота / Collateral Beauty [драма, 2016] Blu-ray 1080p, Dub+Sub [Лицензия]

salma3

24 | 21

33.48 ГБ

В этой теме нет новых непрочитанных сообщений. Призрачная красота / Collateral Beauty [драма, 2016] BDRip, Dub+Sub [Лицензия]

salma3

4196 | 110

1.46 ГБ


Начать новую тему Ответить на тему  [ 1 сообщение ] 




Для Мосгорсуда, Роскомнадзора и рекламодателей:: mosgorsud-torrent[собачка]yandex.ru
cron