Торрент файл
скачать торрент магнет ссылка Добавлен: 11 янв 2013, 22:19
Размер: 2.68 ГБ
Сидеров: 9
Личеров: 5
Автор

СообщениеДобавлено: 11 янв 2013, 22:19 

Не в сети
Супермодератор
Аватара пользователя
Дата регистрации:
11 апр 2010, 18:10
Спасибо: 5996 / 7
Сообщения: 56684
id="p-25224744-1">Дом. История путешествия / HomeГод выпуска: 2009
Страна: Франция
Жанр: документальный
Продолжительность: 01:52:58
Перевод: профессиональный (полное дублирование)
Русские субтитры: есть
Режиссер: Ян Артус Бертранд / Yann Arthus-Bertrand
В ролях: Ян Артус Бертранд, Жак Гамблен
Описание: Фильм демонстрирует нам красоту планеты и последствия разрушений, нанесенных деятельностью человека. Незаживающие шрамы, нанесенные Земле промышленными производствами, последствия войн, экологических катастроф, раскрывают зрителю реальную ситуацию на планете.
Внимание:
Это документальный фильм-рассказ на основе оригинального видеоматериала о том, как режиссёр снимал фильм "Дом. Свидание с планетой". то есть, фильм о фильме (нет, в нём нет видео со съёмочной площадки и интервью актёров, это художественно-документальный фильм о фильме, в котором показаны многие кадры, не вошедшие в оригинальный фильм, и рассуждения режиссера за кадром).
Доп. информация:
IMDb: 8.4/10
Kinopoisk: 8.294/10, Top 250: #85
Sample
Интересные факты о фильме
    Фильм был создан специально как призыв к объединению для спасения будущего нашей планеты. Именно поэтому он распространяется бесплатно. Владельцы прав на фильм и его распространение (компании PPR Group и EuropaCorp) также согласились не использовать его в коммерческих целях.
    Весь фильм снимался с вертолёта на камеру высокого разрешения Cineflex.
    За 18 месяцев съемочная группа побывала в 53 странах мира. При этом в некоторых странах, например в Китае и Саудовской Аравии, режиссёру было отказано в проведении воздушной съёмки. В Индии половина отснятых материалов была конфискована, а в Аргентине Артюс-Бертрану и его помощникам пришлось провести неделю в тюрьме.
    Рождению фильма HOME предшествовали 15 лет работы, в течение которых было создано 500 тысяч фотографий, запечатленных в более чем 100 странах мира, продано 3 миллиона книг, проведено 100 бесплатных open-air-выставок с более чем 100 миллионами посетителей, снято 4 документальных фильма со зрительской аудиторией 5 миллионов человек.
  • Премьера фильма состоялась 5 июня 2009 года, во Всемирный день окружающей среды. Картина одновременно транслировалась на крупнейших площадках 87 стран мира в формате открытого бесплатного показа.
Награды и номинации
Сезар, 2010 год
Номинации (1):
* Лучший документальный фильм
Качество: BDRip все благодарности за рип =>Nitey<=
Формат: m4v
Видео кодек: H.264
Аудио кодек: AAC
Видео: 1024x576 (16/9), 3064 kbps, 23,976 fps
Аудио №1: RussianAAC at 159 Kbps 2 channels, 48.0 KHz
Аудио №2: French AAC at 162 Kbps 2 channels, 48.0 KHz
Субтитры: Russian SRT
x264 log
x264 [info]: frame I:848 Avg QP:20.40 size:122116 PSNR Mean Y:42.43 U:46.46 V:47.58 Avg:43.47 Global:42.70
x264 [info]: frame P:30406 Avg QP:22.39 size: 38739 PSNR Mean Y:39.88 U:44.29 V:45.59 Avg:40.98 Global:40.10
x264 [info]: frame B:131256 Avg QP:23.90 size: 10015 PSNR Mean Y:39.47 U:44.34 V:45.68 Avg:40.62 Global:39.65
x264 [info]: consecutive B-frames: 0.8% 0.7% 4.1% 13.4% 12.5% 57.2% 4.0% 1.0% 2.7% 0.5% 0.9% 1.7% 0.3%
x264 [info]: mb I I16..4: 3.2% 74.0% 22.9%
x264 [info]: mb P I16..4: 0.1% 4.5% 0.6% P16..4: 47.4% 30.7% 11.4% 1.2% 1.6% skip: 2.3%
x264 [info]: mb B I16..4: 0.0% 0.2% 0.0% B16..8: 42.3% 9.1% 3.3% direct: 8.3% skip:36.7% L0:34.3% L1:45.4% BI:20.3%
x264 [info]: 8x8 transform intra:81.6% inter:50.9%
x264 [info]: coded y,uvDC,uvAC intra: 97.3% 87.8% 71.0% inter: 28.4% 21.7% 5.2%
x264 [info]: i16 v,h,dc,p: 19% 24% 19% 39%
x264 [info]: i8 v,h,dc,ddl,ddr,vr,hd,vl,hu: 6% 14% 9% 9% 12% 9% 15% 9% 17%
x264 [info]: i4 v,h,dc,ddl,ddr,vr,hd,vl,hu: 6% 10% 5% 9% 14% 11% 16% 10% 18%
x264 [info]: i8c dc,h,v,p: 48% 26% 14% 13%
x264 [info]: Weighted P-Frames: Y:7.0% UV:3.2%
x264 [info]: ref P L0: 51.9% 17.4% 16.5% 3.8% 3.1% 1.9% 1.8% 0.9% 0.9% 0.6% 0.7% 0.5% 0.1% 0.0%
x264 [info]: ref B L0: 84.3% 8.9% 2.9% 1.3% 0.8% 0.6% 0.5% 0.3% 0.2% 0.2% 0.1%
x264 [info]: ref B L1: 94.0% 6.0%
x264 [info]: SSIM Mean Y:0.9677759 (14.918db)
x264 [info]: PSNR Mean Y:39.561 U:44.342 V:45.674 Avg:40.704 Global:39.740 kb/s:3064.06
encoded 162510 frames, 4.38 fps, 3064.06 kb/s
Mediainfo
Format : MPEG-4
Codec ID : M4V
File size : 2.68 GiB
Duration : 1h 53mn
Overall bit rate : 3 394 Kbps
Movie name : Дом. История путешествия
Performer : Ян Артус Бертранд
Genre : Documentary
Encoded date : 2009-06-05T07:00:00:Z
Tagged date : UTC 2012-03-21 17:23:07
Writing application : MkvToMp4 [www.mkvtomp4.ru] version 0.218
Cover : Yes
desc : Фильм демонстрирует нам красоту планеты и последствия разрушений, нанесенных деятельностью человека. Незаживающие шрамы, нанесенные Земле промышленными производствами, последствия войн, экологических катастроф, раскрывают зрителю реальную ситуацию на
ldes : Фильм демонстрирует нам красоту планеты и последствия разрушений, нанесенных деятельностью человека. Незаживающие шрамы, нанесенные Земле промышленными производствами, последствия войн, экологических катастроф, раскрывают зрителю реальную ситуацию на планете.
hdvd : 1
stik : 0
cnID : 309397
xid : iPad:vendor_id:2009-309397
iTunEXTC : mpaa|NR|000|
iTunMOVI : / / / / cast / / / name / Ян Артус Бертранд / / / name / Жак Гамблен / / / directors / / / name / Ян Артус Бертранд / / / producers / / / name / Люк Бессон / / / name / Дэнис Кэрот / / / screenwriters / / / name / Изабелль Деланнуа / / / name / Ян Артус Бертранд / / / name / Дэнис Кэрот / / / /
Video
ID : 1
Format : AVC
Format/Info : Advanced Video Codec
Format profile : [email protected]
Format settings, CABAC : Yes
Format settings, ReFrames : 12 frames
Codec ID : avc1
Codec ID/Info : Advanced Video Coding
Duration : 1h 52mn
Bit rate mode : Variable
Bit rate : 3 064 Kbps
Maximum bit rate : 21.7 Mbps
Width : 1 024 pixels
Height : 576 pixels
Display aspect ratio : 16:9
Frame rate mode : Constant
Frame rate : 23.976 fps
Resolution : 24 bits
Colorimetry : 4:2:0
Scan type : Progressive
Bits/(Pixel*Frame) : 0.217
Stream size : 2.42 GiB (90%)
Writing library : x264 core 115 r1947 b5a8ad7
Encoding settings : cabac=1 / ref=12 / deblock=1:-3:-2 / analyse=0x3:0x133 / me=umh / subme=10 / psy=1 / psy_rd=1.10:0.07 / mixed_ref=1 / me_range=32 / chroma_me=1 / trellis=2 / 8x8dct=1 / cqm=0 / deadzone=21,11 / fast_pskip=1 / chroma_qp_offset=-3 / threads=6 / sliced_threads=0 / nr=0 / decimate=1 / interlaced=0 / bluray_compat=0 / constrained_intra=0 / bframes=12 / b_pyramid=2 / b_adapt=2 / b_bias=0 / direct=1 / weightb=1 / open_gop=0 / weightp=2 / keyint=250 / keyint_min=23 / scenecut=40 / intra_refresh=0 / rc=crf / mbtree=0 / crf=20.9 / qcomp=0.80 / qpmin=0 / qpmax=69 / qpstep=4 / ip_ratio=1.40 / pb_ratio=1.20 / aq=2:1.10
Language : French
Encoded date : UTC 2012-03-20 17:15:53
Tagged date : UTC 2012-03-20 17:20:22
Matrix coefficients : BT.709-5, BT.1361, IEC 61966-2-4 709, SMPTE RP177
Audio #1
ID : 2
Format : AAC
Format/Info : Advanced Audio Codec
Format version : Version 4
Format profile : LC
Format settings, SBR : No
Codec ID : 40
Duration : 1h 53mn
Bit rate mode : Variable
Bit rate : 159 Kbps
Maximum bit rate : 196 Kbps
Channel(s) : 2 channels
Channel positions : L R
Sampling rate : 48.0 KHz
Resolution : 16 bits
Stream size : 129 MiB (5%)
Title : Russkie
Language : Russian
Encoded date : UTC 2012-03-20 17:19:20
Tagged date : UTC 2012-03-20 17:20:22
Audio #2
ID : 3
Format : AAC
Format/Info : Advanced Audio Codec
Format version : Version 4
Format profile : LC
Format settings, SBR : No
Codec ID : 40
Duration : 1h 53mn
Bit rate mode : Variable
Bit rate : 162 Kbps
Maximum bit rate : 196 Kbps
Channel(s) : 2 channels
Channel positions : L R
Sampling rate : 48.0 KHz
Resolution : 16 bits
Stream size : 131 MiB (5%)
Title : Original
Language : French
Encoded date : UTC 2012-03-20 17:19:51
Tagged date : UTC 2012-03-20 17:20:22
Text
ID : 4
Format : Timed text
Muxing mode : sbtl
Codec ID : tx3g
Duration : 1h 52mn
Bit rate mode : Variable
Bit rate : 129 bps
Stream size : 106 KiB (0%)
Title : Русские
Language : Russian
Encoded date : UTC 2012-03-20 17:20:22
Tagged date : UTC 2012-03-20 17:20:22
Скриншоты



Вернуться к началу
 Профиль Отправить личное сообщение  
 
   Похожие торренты   Автор   Торрент   Размер 
В этой теме нет новых непрочитанных сообщений. Забирая жизни / Taking Lives [триллер, криминал, детектив, 2004] BDRip 720p, Dub [Режиссерская версия] [iPad]

salma3

0 | 0

1.64 ГБ

В этой теме нет новых непрочитанных сообщений. Безымянный палец / Перст любви / L'annulaire (Дайан Бертран / Diane Bertrand) [2005г., драма, DVDRip-AVC] MVO

Alfredovich

21 | 4

1.86 ГБ

В этой теме нет новых непрочитанных сообщений. Пила 6 / Saw VI [ужасы, детектив, триллер, 2009] BDRip 720p, Dub [Режиссерская версия]

salma3

0 | 0

5.76 ГБ

В этой теме нет новых непрочитанных сообщений. Книга крови / Book of Blood [ужасы, триллер, драма, 2009] BDRip 720p, Dub [Режиссерская версия]

salma3

0 | 2

3.89 ГБ

В этой теме нет новых непрочитанных сообщений. Пила 5 / Saw V [ужасы, детектив, триллер, 2008] BDRip 720p, Dub [Режиссерская версия]

salma3

0 | 0

6.58 ГБ

В этой теме нет новых непрочитанных сообщений. Пила 4 / Saw IV [ужасы, триллер, детектив, 2007] BDRip 720p, Dub [Режиссерская версия]

salma3

0 | 0

7.76 ГБ

В этой теме нет новых непрочитанных сообщений. Фелисити / Felicity [драма, мелодрама, 1978] BDRip 720p, Avo [режиссёрская версия]

salma3

122 | 18

2.11 ГБ


Начать новую тему Ответить на тему  [ 1 сообщение ] 




Для Мосгорсуда, Роскомнадзора и рекламодателей:: mosgorsud-torrent[собачка]yandex.ru
cron