Торрент файл
скачать торрент магнет ссылка Добавлен: 11 янв 2013, 22:18
Размер: 2.4 ГБ
Сидеров: 4
Личеров: 4
Автор

СообщениеДобавлено: 11 янв 2013, 22:18 

Не в сети
Супермодератор
Аватара пользователя
Дата регистрации:
11 апр 2010, 18:10
Спасибо: 5996 / 7
Сообщения: 56684
id="p-25224744-1">Шоколад / Chocolat



Год выпуска: 2000
Страна: США, Великобритания
Жанр: драма, мелодрама, детектив
Продолжительность: 02:01:49
Перевод: Профессиональный (полное дублирование)
Режиссёр: Лассе Халльстрём / Lasse Hallström
В ролях: Жюльет Бинош, Альфред Молина, Джонни Депп, Кэрри-Энн Мосс, Джуди Денч, Антонио Хиль-Мартинес, Элен Кардона, Хью О'Конор, Харрисон Прэтт, Гаэлан Коннелл, Лина Олин, Элизабет Коммелин, Питер Стормаре, Рон Кук, Орельен Парент Кениг, Гийом Тардье, Виктуар Тивисоль, Джон Вуд, Лесли Кэрон, Мишель Глезе, Доминик МакЭвой, Арно Адам, Кристианн Оливейра, Марион Одюкер
Описание: Как-то зимним днем в тихом французском городке появляется молодая женщина по имени Виенн. А чуть позже она открывает необычный шоколадный магазин, предлагая посетителям испытать новое удовольствие. И действительно, побывав у нее однажды, люди вновь и вновь поддаются сладкому очарованию. Просто Виенн волшебным образом угадывает чужие желания. И они сбываются! Но только когда в город приезжает Ру, Виенн, наконец, смогла понять свои собственные…
Качество: BDRip
Формат: m4v
Видео кодек: H.264
Аудио кодек: AAC
Видео: 1152x648, 2489 Kbps, 23,976 fps
Аудио Rus: 48 kHz, AAC, 2ch, 174 kbps
Аудио Eng: 48 kHz, AAC, 2ch, 154 kbps
MediaInfo
Код:
Код:
Полное имя : E:\Chokolat.m4v
Формат : MPEG-4
Идентификатор кодека : M4V
Размер файла : 2,40 Гбайт
Продолжительность : 2 ч. 1 м.
Общий поток : 2826 Кбит/сек
Название фильма : Шоколад
Исполнитель : Лассе Халльстрём
Жанр : Drama
Дата записи : UTC 2001-01-05 08:00:00
Дата кодирования : UTC 2012-03-04 10:21:20
Дата пометки : UTC 2012-03-05 10:51:48
Обложка : Yes
desc : Как-то зимним днем в тихом французском городке появляется молодая женщина по имени Виенн. А чуть позже она открывает необычный шоколадный магазин, предлагая посетителям испытать новое удовольствие. И действительно, побывав у нее однажды, люди вновь и
ldes : Как-то зимним днем в тихом французском городке появляется молодая женщина по имени Виенн. А чуть позже она открывает необычный шоколадный магазин, предлагая посетителям испытать новое удовольствие. И действительно, побывав у нее однажды, люди вновь и вновь поддаются сладкому очарованию.
hdvd : 1
stik : 9
cnID : 432470218
xid : iPad:vendor_id:2001-636
iTunEXTC : mpaa|PG-13|300|
iTunMOVI : / / / / cast / / / name / Жюльет Бинош / / / name / Альфред Молина / / / name / Кэрри-Энн Мосс / / / name / Джуди Денч / / / name / Антонио Гил-Мартинес / / / name / Хелен Кардона / / / name / Джонни Депп / / / name / Хью О’Конор / / / name / Харрисон Прэтт / / / name / Гэлан Коннелл / / / directors / / / name / Лассе Халльстрём / / / producers / / / name / Алан С. Бломквист / / / name / Дэвид Браун / / / name / Марк Купер / / / screenwriters / / / name / Роберт Нелсон Джекобс / / / name / Джоанн Харрис / / / /
Видео
Идентификатор : 1
Формат : AVC
Формат/Информация : Advanced Video Codec
Профиль формата : [email protected]
Параметр CABAC формата : Да
Параметр ReFrames формата : 11 кадры
Идентификатор кодека : avc1
Идентификатор кодека/Информация : Advanced Video Coding
Продолжительность : 2 ч. 1 м.
Вид битрейта : Переменный
Битрейт : 2489 Кбит/сек
Максимальный битрейт : 15,0 Мбит/сек
Ширина : 1152 пикс.
Высота : 648 пикс.
Соотношение сторон : 16:9
Режим частоты кадров : Постоянный
Частота кадров : 23,976 кадр/сек
Цветовое пространство : YUV
Подвыборка цветности : 4:2:0
Битовая глубина : 8 бит
Тип развёртки : Прогрессивная
Бит/(Пиксели*Кадры) : 0.139
Размер потока : 2,12 Гбайт (88%)
Заголовок : Chocolat 2000
Библиотека кодирования : x264 core 104 r1688 0b36c6d
Настройки программы : cabac=1 / ref=11 / deblock=1:-2:-1 / analyse=0x3:0x133 / me=umh / subme=10 / psy=1 / psy_rd=0.90:0.05 / mixed_ref=1 / me_range=48 / chroma_me=1 / trellis=2 / 8x8dct=1 / cqm=0 / deadzone=21,11 / fast_pskip=0 / chroma_qp_offset=-3 / threads=6 / sliced_threads=0 / nr=0 / decimate=1 / interlaced=0 / constrained_intra=0 / bframes=8 / b_pyramid=2 / b_adapt=2 / b_bias=0 / direct=1 / weightb=1 / open_gop=0 / weightp=2 / keyint=250 / keyint_min=23 / scenecut=40 / intra_refresh=0 / rc_lookahead=80 / rc=crf / mbtree=1 / crf=19.0 / qcomp=0.70 / qpmin=10 / qpmax=51 / qpstep=4 / ip_ratio=1.40 / aq=2:0.90
Язык : English
Дата кодирования : UTC 2012-03-04 10:21:20
Дата пометки : UTC 2012-03-04 10:24:56
Аудио #1
Идентификатор : 2
Формат : AAC
Формат/Информация : Advanced Audio Codec
Профиль формата : LC
Идентификатор кодека : 40
Продолжительность : 2 ч. 1 м.
Вид битрейта : Переменный
Битрейт : 174 Кбит/сек
Максимальный битрейт : 253 Кбит/сек
Канал(ы) : 2 канала(ов)
Расположение каналов : Front: L R
Частота : 48,0 КГц
Метод сжатия : С потерями
Размер потока : 152 Мбайт (6%)
Заголовок : Russian
Язык : Russian
Дата кодирования : UTC 2012-03-04 10:24:20
Дата пометки : UTC 2012-03-04 10:24:56
Аудио #2
Идентификатор : 3
Формат : AAC
Формат/Информация : Advanced Audio Codec
Профиль формата : LC
Идентификатор кодека : 40
Продолжительность : 2 ч. 1 м.
Вид битрейта : Переменный
Битрейт : 154 Кбит/сек
Максимальный битрейт : 249 Кбит/сек
Канал(ы) : 2 канала(ов)
Расположение каналов : Front: L R
Частота : 48,0 КГц
Метод сжатия : С потерями
Размер потока : 134 Мбайт (5%)
Заголовок : Original
Язык : English
Дата кодирования : UTC 2012-03-04 10:24:39
Дата пометки : UTC 2012-03-04 10:24:56
Текст #1
Идентификатор : 4
Формат : Timed text
Режим смешивания : sbtl
Идентификатор кодека : tx3g
Продолжительность : 1 ч. 56 м.
Вид битрейта : Переменный
Битрейт : 78 бит/сек
Размер потока : 66,2 Кбайт (0%)
Язык : Russian
Дата кодирования : UTC 2012-03-04 10:24:55
Дата пометки : UTC 2012-03-04 10:24:56
Текст #2
Идентификатор : 5
Формат : Timed text
Режим смешивания : sbtl
Идентификатор кодека : tx3g
Продолжительность : 1 ч. 56 м.
Вид битрейта : Переменный
Битрейт : 53 бит/сек
Размер потока : 45,5 Кбайт (0%)
Язык : English
Дата кодирования : UTC 2012-03-04 10:24:55
Дата пометки : UTC 2012-03-04 10:24:56
Текст #3
Идентификатор : 6
Формат : Timed text
Режим смешивания : sbtl
Идентификатор кодека : tx3g
Продолжительность : 1 ч. 56 м.
Вид битрейта : Переменный
Битрейт : 48 бит/сек
Размер потока : 41,2 Кбайт (0%)
Язык : French
Дата кодирования : UTC 2012-03-04 10:24:56
Дата пометки : UTC 2012-03-04 10:24:56
Текст #4
Идентификатор : 8
Формат : Apple text
Идентификатор кодека : text
Продолжительность : 2 ч. 1 м.
Вид битрейта : Переменный
Битрейт : 1 бит/сек
Размер потока : 516 байт (0%)
Дата кодирования : UTC 2012-03-05 10:50:05
Дата пометки : UTC 2012-03-05 10:50:05

Скриншоты



Вернуться к началу
 Профиль Отправить личное сообщение  
 
   Похожие торренты   Автор   Торрент   Размер 
В этой теме нет новых непрочитанных сообщений. Сигареты и горячий шоколад / Cigarettes et chocolat chaud [комедия, 2016] WEBRip, Mvo [GreenРай Studio]

salma3

19 | 15

1.37 ГБ

В этой теме нет новых непрочитанных сообщений. Сигареты и горячий шоколад / Cigarettes et chocolat chaud [комедия, 2016] WEBRip 1080p, Mvo [GreenРай Studio]

salma3

3 | 3

2.91 ГБ

В этой теме нет новых непрочитанных сообщений. Сигареты и горячий шоколад / Cigarettes et chocolat chaud [комедия, 2016] WEBRip 720p, Mvo [GreenРай Studio]

salma3

0 | 0

2.6 ГБ

В этой теме нет новых непрочитанных сообщений. Кровь и шоколад / Blood and Chocolate [фэнтези, драма, мелодрама, 2006] BDRip 720p, Dub

salma3

17 | 12

4.64 ГБ

В этой теме нет новых непрочитанных сообщений. Клетка / The Cell [ужасы, фантастика, триллер, 2000] BDRip 720p, Dub [iPad]

salma3

13 | 2

2.27 ГБ

В этой теме нет новых непрочитанных сообщений. Восставший / Risen [боевик, драма, детектив, приключения, 2016] BDRip 720p, Dub [iPad]

salma3

29 | 9

1.91 ГБ

В этой теме нет новых непрочитанных сообщений. Бугимен / Boogeyman [ужасы, триллер, драма, детектив, 2005] BDRip 720p, Dub [iPad]

salma3

0 | 0

2.12 ГБ


Начать новую тему Ответить на тему  [ 1 сообщение ] 




Для Мосгорсуда, Роскомнадзора и рекламодателей:: mosgorsud-torrent[собачка]yandex.ru
cron