Торрент файл
скачать торрент магнет ссылка Добавлен: 11 янв 2013, 22:18
Размер: 2.44 ГБ
Сидеров: 1
Личеров: 3
Автор

СообщениеДобавлено: 11 янв 2013, 22:18 

Не в сети
Супермодератор
Аватара пользователя
Дата регистрации:
11 апр 2010, 18:10
Спасибо: 5995 / 7
Сообщения: 56685
id="p-25224744-1">Жизнь, как она есть / Life as We Know It



Год выпуска: 2010
Страна: США
Жанр: драма, комедия
Продолжительность: 01:54:39
Перевод: Профессиональный (дублированный)
Режиссер: Грег Берланти / Greg Berlanti
В ролях: Кэтрин Хайгл, Джош Дюамель, Джош Лукас, Алексис Кладжетт, Бринн Кладжетт, Брук Клагетт, Хэйес МакАртур, Кристина Хендрикс, Сара Барнс, Джессика Ст. Клэр
Описание: Холли Беренсон — владелец кондитерской, Эрик Мессер — многообещающий директор спортивной сети.
После рокового первого свидания единственное, что у них теперь общее, — это ненависть друг к другу и любовь к крестнице Софи.
Но когда внезапно они становятся единственными, кто остается у Софи, Холли и Мессер вынуждены забыть о собственных несовпадениях.
В попытке состыковать карьерные амбиции и несхожие планы досуга им всё-таки придется найти хоть что-то их объединяющее, ведь отныне им предстоит поселиться под одной крышей.

Качество: BDRip
Формат: m4v
Видео кодек: H.264
Аудио кодек: AAC
Видео: 1152x480, 2738 Kbps, 23,976 fps
Аудио Rus: 48 kHz, AAC, 2ch, 144 kbps
Аудио Eng: 48 kHz, AAC, 2ch, 153 kbps
MediaInfo
Код:
Код:
Полное имя : F:\iPad\Life as We Know It.m4v
Формат : MPEG-4
Идентификатор кодека : M4V
Размер файла : 2,44 Гбайт
Продолжительность : 1 ч. 54 м.
Общий поток : 3047 Кбит/сек
Название фильма : Жизнь, как она есть
Исполнитель : Грег Берланти
Жанр : Comedy
Дата записи : UTC 2010-10-08 07:00:00
Дата кодирования : UTC 2012-02-04 20:47:42
Дата пометки : UTC 2012-02-15 18:29:43
Обложка : Yes
desc : Холли Беренсон — владелец кондитерской, Эрик Мессер — многообещающий технический директор на спортивных трансляциях. После рокового первого свидания единственное, что у них теперь общее, — это ненависть друг к другу и любовь к крестнице Софи.
ldes : Холли Беренсон — владелец кондитерской, Эрик Мессер — многообещающий технический директор на спортивных трансляциях. После рокового первого свидания единственное, что у них теперь общее, — это ненависть друг к другу и любовь к крестнице Софи. Но когда внезапно они становятся единственными, кто остается у Софи, Холли и Мессер вынуждены забыть о собственных несовпадениях.
hdvd : 1
stik : 9
cnID : 399354776
xid : iPad:vendor_id:2010-463952
iTunEXTC : mpaa|PG|200|
iTunMOVI : / / / / cast / / / name / Кэтрин Хайгл / / / name / Джош Дюамель / / / name / Джош Лукас / / / name / Алексис Кладжетт / / / name / Бринн Кладжетт / / / name / Брук Клагетт / / / name / Хэйес МакАртур / / / name / Кристина Хендрикс / / / name / Сара Барнс / / / name / Джессика Ст. Клэр / / / directors / / / name / Грег Берланти / / / producers / / / name / Пол Брукс / / / name / Бэрри Джозефсон / / / name / Норм Уэйт / / / screenwriters / / / name / Йен Дейчман / / / name / Кристин Раск Робинсон / / / /
Видео
Идентификатор : 1
Формат : AVC
Формат/Информация : Advanced Video Codec
Профиль формата : [email protected]
Параметр CABAC формата : Да
Параметр ReFrames формата : 8 кадры
Идентификатор кодека : avc1
Идентификатор кодека/Информация : Advanced Video Coding
Продолжительность : 1 ч. 54 м.
Вид битрейта : Переменный
Битрейт : 2738 Кбит/сек
Максимальный битрейт : 10,6 Мбит/сек
Ширина : 1152 пикс.
Высота : 480 пикс.
Соотношение сторон : 2,40:1
Режим частоты кадров : Постоянный
Частота кадров : 23,976 кадр/сек
Цветовое пространство : YUV
Подвыборка цветности : 4:2:0
Битовая глубина : 8 бит
Тип развёртки : Прогрессивная
Бит/(Пиксели*Кадры) : 0.207
Размер потока : 2,19 Гбайт (90%)
Заголовок : Life As We Know It
Библиотека кодирования : x264 core 113 r1884 7313bb5
Настройки программы : cabac=1 / ref=8 / deblock=1:-3:-2 / analyse=0x3:0x113 / me=umh / subme=10 / psy=1 / psy_rd=1.05:0.03 / mixed_ref=1 / me_range=32 / chroma_me=1 / trellis=2 / 8x8dct=1 / cqm=0 / deadzone=21,11 / fast_pskip=1 / chroma_qp_offset=-3 / threads=6 / sliced_threads=0 / nr=0 / decimate=1 / interlaced=0 / constrained_intra=0 / bframes=10 / b_pyramid=2 / b_adapt=2 / b_bias=0 / direct=3 / weightb=1 / open_gop=0 / weightp=2 / keyint=250 / keyint_min=23 / scenecut=40 / intra_refresh=0 / rc_lookahead=50 / rc=2pass / mbtree=1 / bitrate=2738 / ratetol=1.0 / qcomp=0.70 / qpmin=0 / qpmax=69 / qpstep=4 / cplxblur=20.0 / qblur=0.5 / vbv_maxrate=50000 / vbv_bufsize=62500 / nal_hrd=none / ip_ratio=1.35 / aq=2:0.90 / zones=159000,164933,q=35
Язык : English
Дата кодирования : UTC 2012-02-04 20:47:42
Дата пометки : UTC 2012-02-04 20:50:36
Коэффициенты матрицы : BT.709-5, BT.1361, IEC 61966-2-4 709, SMPTE RP177
Аудио #1
Идентификатор : 2
Формат : AAC
Формат/Информация : Advanced Audio Codec
Профиль формата : LC
Идентификатор кодека : 40
Продолжительность : 1 ч. 54 м.
Вид битрейта : Переменный
Битрейт : 144 Кбит/сек
Максимальный битрейт : 223 Кбит/сек
Канал(ы) : 2 канала(ов)
Расположение каналов : Front: L R
Частота : 48,0 КГц
Метод сжатия : С потерями
Размер потока : 117 Мбайт (5%)
Заголовок : Dubljaz, 48 kHz, AC3, 3/2 (L,C,R,l,r) + LFE ch, ~
Язык : Russian
Дата кодирования : UTC 2012-02-04 20:50:09
Дата пометки : UTC 2012-02-04 20:50:36
Аудио #2
Идентификатор : 3
Формат : AAC
Формат/Информация : Advanced Audio Codec
Профиль формата : LC
Идентификатор кодека : 40
Продолжительность : 1 ч. 54 м.
Вид битрейта : Переменный
Битрейт : 153 Кбит/сек
Максимальный битрейт : 230 Кбит/сек
Канал(ы) : 2 канала(ов)
Расположение каналов : Front: L R
Частота : 48,0 КГц
Метод сжатия : С потерями
Размер потока : 125 Мбайт (5%)
Заголовок : Original, 48 kHz, AC3, 3/2 (L,C,R,l,r) + LFE ch, ~
Язык : English
Дата кодирования : UTC 2012-02-04 20:50:21
Дата пометки : UTC 2012-02-04 20:50:36
Текст #1
Идентификатор : 4
Формат : Timed text
Режим смешивания : sbtl
Идентификатор кодека : tx3g
Продолжительность : 1 ч. 48 м.
Вид битрейта : Переменный
Битрейт : 0
Размер потока : 390 байт (0%)
Заголовок : Forced
Язык : Russian
Дата кодирования : UTC 2012-02-04 20:50:33
Дата пометки : UTC 2012-02-04 20:50:36
Текст #2
Идентификатор : 5
Формат : Timed text
Режим смешивания : sbtl
Идентификатор кодека : tx3g
Продолжительность : 1 ч. 49 м.
Вид битрейта : Переменный
Битрейт : 152 бит/сек
Размер потока : 122 Кбайт (0%)
Заголовок : R5
Язык : Russian
Дата кодирования : UTC 2012-02-04 20:50:33
Дата пометки : UTC 2012-02-04 20:50:36
Текст #3
Идентификатор : 6
Формат : Timed text
Режим смешивания : sbtl
Идентификатор кодека : tx3g
Продолжительность : 1 ч. 54 м.
Вид битрейта : Переменный
Битрейт : 100 бит/сек
Размер потока : 84,0 Кбайт (0%)
Заголовок : SDH
Язык : English
Дата кодирования : UTC 2012-02-04 20:50:34
Дата пометки : UTC 2012-02-04 20:50:36
Текст #4
Идентификатор : 7
Формат : Timed text
Режим смешивания : sbtl
Идентификатор кодека : tx3g
Продолжительность : 1 ч. 50 м.
Вид битрейта : Переменный
Битрейт : 100 бит/сек
Размер потока : 80,5 Кбайт (0%)
Язык : English
Дата кодирования : UTC 2012-02-04 20:50:34
Дата пометки : UTC 2012-02-04 20:50:36
Текст #5
Идентификатор : 8
Формат : Timed text
Режим смешивания : sbtl
Идентификатор кодека : tx3g
Продолжительность : 1 ч. 54 м.
Вид битрейта : Переменный
Битрейт : 91 бит/сек
Размер потока : 76,4 Кбайт (0%)
Язык : Spanish
Дата кодирования : UTC 2012-02-04 20:50:35
Дата пометки : UTC 2012-02-04 20:50:36
Текст #6
Идентификатор : 9
Формат : Timed text
Режим смешивания : sbtl
Идентификатор кодека : tx3g
Продолжительность : 1 ч. 54 м.
Вид битрейта : Переменный
Битрейт : 64 бит/сек
Размер потока : 54,1 Кбайт (0%)
Язык : French
Дата кодирования : UTC 2012-02-04 20:50:35
Дата пометки : UTC 2012-02-04 20:50:36
Текст #7
Идентификатор : 11
Формат : Apple text
Идентификатор кодека : text
Продолжительность : 1 ч. 54 м.
Вид битрейта : Переменный
Битрейт : 0
Размер потока : 315 байт (0%)
Дата кодирования : UTC 2012-02-15 18:29:43
Дата пометки : UTC 2012-02-15 18:29:43

Скриншоты



Вернуться к началу
 Профиль Отправить личное сообщение  
 
   Похожие торренты   Автор   Торрент   Размер 
В этой теме нет новых непрочитанных сообщений. Слепое пятно / Blindspot [01х01-08 из 23] (Сара Шечтер, Грег Берланти, Мартин Джеро) [2015, Детектив, Драма, Криминал, WEB-DL 720p | NewStudio]

Dracon

8 | 16

11.3 ГБ

В этой теме нет новых непрочитанных сообщений. Менее привычная жизнь / A Life Less Ordinary [фэнтези, драма, мелодрама, комедия, криминал, 1997] BDRip 720p, Mvo

salma3

63 | 31

4.53 ГБ

В этой теме нет новых непрочитанных сообщений. Жизнь дерьмо / Life Stinks [комедия, 1991] BDRip, Mvo

salma3

100 | 17

1.45 ГБ

В этой теме нет новых непрочитанных сообщений. Жизнь в деталях / Life in Pieces [S02] [комедия, 2016] WEB-DL 1080p, Mvo [Fox Life]

salma3

7 | 12

18.73 ГБ

В этой теме нет новых непрочитанных сообщений. Жизнь дерьмо / Life Stinks [мелодрама, комедия, 1991] BDRip 720p, Mvo

salma3

181 | 58

6.59 ГБ

В этой теме нет новых непрочитанных сообщений. Жизнь дерьмо / Life Stinks [комедия, мелодрама, 1991] BDRip 1080p, Avo+2Mvo+Sub

salma3

73 | 5

7.38 ГБ

В этой теме нет новых непрочитанных сообщений. Жизнь этого парня / This Boy's Life [драма, биография, 1993] BDRip-AVC, Mvo

salma3

18 | 9

1.45 ГБ


Начать новую тему Ответить на тему  [ 1 сообщение ] 




Для Мосгорсуда, Роскомнадзора и рекламодателей:: mosgorsud-torrent[собачка]yandex.ru
cron