Торрент файл
скачать торрент магнет ссылка Добавлен: 11 янв 2013, 22:18
Размер: 3.64 ГБ
Сидеров: 5
Личеров: 4
Автор

СообщениеДобавлено: 11 янв 2013, 22:18 

Не в сети
Супермодератор
Аватара пользователя
Дата регистрации:
11 апр 2010, 18:10
Спасибо: 5995 / 7
Сообщения: 56685
id="p-25224744-1">[Город грехов / Sin City«Deadly little Miho»

Страна: США
Жанр: боевик, триллер, криминал, детектив
Год выпуска: 2005
Продолжительность: 02:21:45
Перевод: Профессиональный (многоголосый, закадровый)
Режиссер: Фрэнк Миллер, Роберт Родригес, Квентин Тарантино
Сценарий: Фрэнк Миллер
Продюсер: Элизабет Авеллан, Билл Скотт, Боб Вайнштейн
В ролях: Брюс Уиллис, Микки Рурк, Джессика Альба, Клайв Оуэн, Ник Сталь, Пауэрс Бут, Рутгер Хауэр, Элайджа Вуд, Розарио Доусон, Бенисио Дель Торо, Бриттани Мерфи, Майкл Кларк Данкан, Карла Гуджино, Джош Хартнетт, Майкл Мэдсен.
Описание: Город грехов - это адская бездна преступлений. Один из его жителей пытается найти убийцу своей подруги. Другой, фотограф, случайно становится свидетелем убийства полицейского и старается скрыть преступление. Спуститесь по глухому переулку города, и вы найдете кое-что еще. В Городе грехов полиция коррумпирована и улицы смертельно опасны…
Качество: BDRip
Исходник: BD-Remux
Формат: m4v
Видео кодек: H.264
Аудио кодек: AAC
Видео: 1280х688, 3500 Kbps, 23,976 fps
Аудио RUS: 48 kHz, AAC, 2ch, 163 kbps
MediaInfo
Код:
Код:
Полное имя : Sin City_new.m4v
Формат : MPEG-4
Идентификатор кодека : M4V
Размер файла : 3,64 Гбайт
Продолжительность : 2 ч. 21 м.
Общий поток : 3676 Кбит/сек
Название фильма : Город грехов
Исполнитель : Quentin Tarantino, Robert Rodriguez & Frank Miller
Жанр : Action & Adventure
Дата записи : UTC 2005-04-01 08:00:00
Дата кодирования : UTC 2012-01-10 10:10:26
Дата пометки : UTC 2012-01-11 10:17:06
Обложка : Yes
desc : Город грехов - это адская бездна преступлений. Один из его жителей пытается найти убийцу своей подруги. Другой, фотограф, случайно становится свидетелем убийства полицейского и старается скрыть преступление.
ldes : Город грехов - это адская бездна преступлений. Один из его жителей пытается найти убийцу своей подруги. Другой, фотограф, случайно становится свидетелем убийства полицейского и старается скрыть преступление. Спуститесь по глухому переулку города, и вы найдете кое-что еще. В Городе грехов полиция коррумпирована и улицы смертельно опасны…
hdvd : 1
stik : 9
cnID : 432481299
xid : iPad:vendor_id:2005-77443
iTunEXTC : mpaa|R|400|
iTunMOVI : / / / / cast / / / name / Микки Рурк / / / name / Брюс Уиллис / / / name / Джессика Альба / / / name / Бенисио Дель Торо / / / name / Карла Гуджино / / / name / Майкл Мэдсен / / / name / Джейми Кинг / / / name / Бриттани Мерфи / / / name / Клайв Оуэн / / / name / Рутгер Хауэр / / / directors / / / name / Фрэнк Миллер / / / name / Роберт Родригес / / / name / Квентин Тарантино / / / producers / / / name / Элизабет Авеллан / / / name / Билл Скотт / / / name / Боб Вайнштейн / / / screenwriters / / / name / Фрэнк Миллер / / / /
Видео
Идентификатор : 1
Формат : AVC
Формат/Информация : Advanced Video Codec
Профиль формата : [email protected]
Параметр CABAC формата : Да
Параметр ReFrames формата : 6 кадры
Идентификатор кодека : avc1
Идентификатор кодека/Информация : Advanced Video Coding
Продолжительность : 2 ч. 21 м.
Вид битрейта : Переменный
Битрейт : 3500 Кбит/сек
Максимальный битрейт : 26,5 Мбит/сек
Ширина : 1280 пикс.
Высота : 688 пикс.
Соотношение сторон : 1,860
Режим частоты кадров : Переменный
Частота кадров : 23,976 кадр/сек
Минимальная частота кадров : 23,969 кадр/сек
Максимальная частота кадров : 24,038 кадр/сек
Цветовое пространство : YUV
Подвыборка цветности : 4:2:0
Битовая глубина : 8 бит
Тип развёртки : Прогрессивная
Бит/(Пиксели*Кадры) : 0.166
Размер потока : 3,47 Гбайт (95%)
Библиотека кодирования : x264 core 112
Настройки программы : cabac=1 / ref=6 / deblock=1:0:0 / analyse=0x3:0x113 / me=umh / subme=9 / psy=1 / psy_rd=1.00:0.00 / mixed_ref=1 / me_range=16 / chroma_me=1 / trellis=1 / 8x8dct=1 / cqm=0 / deadzone=21,11 / fast_pskip=1 / chroma_qp_offset=-2 / threads=3 / sliced_threads=0 / nr=0 / decimate=1 / interlaced=0 / constrained_intra=0 / bframes=9 / b_pyramid=2 / b_adapt=1 / b_bias=0 / direct=1 / weightb=1 / open_gop=0 / weightp=2 / keyint=240 / keyint_min=23 / scenecut=40 / intra_refresh=0 / rc_lookahead=40 / rc=2pass / mbtree=1 / bitrate=3500 / ratetol=1.0 / qcomp=0.60 / qpmin=3 / qpmax=51 / qpstep=4 / cplxblur=20.0 / qblur=0.5 / ip_ratio=1.40 / aq=1:1.00
Язык : English
Дата кодирования : UTC 2012-01-10 10:10:26
Дата пометки : UTC 2012-01-10 10:15:00
Основные цвета : BT.709-5, BT.1361, IEC 61966-2-4, SMPTE RP177
Характеристики трансфера : BT.709-5, BT.1361
Коэффициенты матрицы : BT.709-5, BT.1361, IEC 61966-2-4 709, SMPTE RP177
Аудио
Идентификатор : 2
Формат : AAC
Формат/Информация : Advanced Audio Codec
Профиль формата : LC
Идентификатор кодека : 40
Продолжительность : 2 ч. 21 м.
Вид битрейта : Переменный
Битрейт : 163 Кбит/сек
Максимальный битрейт : 233 Кбит/сек
Канал(ы) : 2 канала(ов)
Расположение каналов : Front: L R
Частота : 48,0 КГц
Метод сжатия : С потерями
Размер потока : 165 Мбайт (4%)
Заголовок : Russian stereo
Язык : Russian
Дата кодирования : UTC 2012-01-10 10:14:48
Дата пометки : UTC 2012-01-10 10:15:00

Log
Код:
Код:
x264 [info]: frame I:2455 Avg QP:17.24 size: 84671 PSNR Mean Y:45.62 U:52.89 V:55.55 Avg:46.99 Global:45.59
x264 [info]: frame P:97145 Avg QP:20.95 size: 28270 PSNR Mean Y:42.50 U:51.26 V:54.51 Avg:43.97 Global:42.71
x264 [info]: frame B:104321 Avg QP:23.13 size: 6934 PSNR Mean Y:44.13 U:52.69 V:57.64 Avg:45.52 Global:43.26
x264 [info]: consecutive B-frames: 17.7% 41.6% 11.1% 10.2% 11.0% 4.8% 1.9% 0.1% 0.1% 1.5%
x264 [info]: mb I I16..4: 44.0% 0.0% 56.0%
x264 [info]: mb P I16..4: 20.7% 0.0% 0.0% P16..4: 48.9% 0.0% 0.0% 0.0% 0.0% skip:30.5%
x264 [info]: mb B I16..4: 2.4% 0.0% 0.0% B16..8: 19.8% 0.0% 0.0% direct: 9.4% skip:68.5% L0:29.3% L1:43.5% BI:27.2%
x264 [info]: final ratefactor: 19.18
x264 [info]: coded y,uvDC,uvAC intra: 52.3% 15.3% 4.7% inter: 20.7% 3.1% 0.3%
x264 [info]: i16 v,h,dc,p: 42% 21% 26% 12%
x264 [info]: i4 v,h,dc,ddl,ddr,vr,hd,vl,hu: 21% 17% 19% 4% 10% 7% 7% 7% 8%
x264 [info]: i8c dc,h,v,p: 78% 10% 11% 1%
x264 [info]: Weighted P-Frames: Y:4.6% UV:3.1%
x264 [info]: SSIM Mean Y:0.9774036 (16.460db)
x264 [info]: PSNR Mean Y:43.371 U:52.013 V:56.119 Avg:44.795 Global:43.008 kb/s:3459.04

Скриншоты
Для просмотра данного релиза на компьютере с ОС Windows рекомендуется использовать VLC media player



Вернуться к началу
 Профиль Отправить личное сообщение  
 
   Похожие торренты   Автор   Торрент   Размер 
В этой теме нет новых непрочитанных сообщений. Дум / Doom [ужасы, фантастика, боевик, приключения, 2005] BDRip 720p, Dub [Расширенная версия] [iPad]

salma3

61 | 28

2.07 ГБ

В этой теме нет новых непрочитанных сообщений. Город Грехов / City of Sin [триллер, драма, криминал, 2017] WEB-DLRip, Mvo

salma3

778 | 280

1.37 ГБ

В этой теме нет новых непрочитанных сообщений. Город Грехов / City of Sin [триллер, драма, криминал, 2017] WEB-DL 1080p, Mvo

salma3

144 | 36

3.57 ГБ

В этой теме нет новых непрочитанных сообщений. Забирая жизни / Taking Lives [триллер, криминал, детектив, 2004] BDRip 720p, Dub [Режиссерская версия] [iPad]

salma3

0 | 0

1.64 ГБ

В этой теме нет новых непрочитанных сообщений. Третий лишний 2 / Ted 2 [комедия, 2015] BDRip 720p, Dub [Расширенная версия] [iPad] [iTunes]

salma3

42 | 25

2.56 ГБ

В этой теме нет новых непрочитанных сообщений. Спасение (Расширенная версия) / Extraction (Unrated Cut) (Стивен С. Миллер) [Триллер, 2015] WEB-DL 720p, Dub [iTunes]

Dracon

2615 | 46

2.69 ГБ

В этой теме нет новых непрочитанных сообщений. Фрэнк и Лола / Frank & Lola [триллер, драма, мелодрама, криминал, детектив, 2016] WEB-DLRip, Mvo

salma3

651 | 150

1.35 ГБ


Начать новую тему Ответить на тему  [ 1 сообщение ] 




Для Мосгорсуда, Роскомнадзора и рекламодателей:: mosgorsud-torrent[собачка]yandex.ru
cron