Торрент файл
скачать торрент магнет ссылка Добавлен: 11 янв 2013, 22:17
Размер: 4.25 ГБ
Сидеров: 9
Личеров: 5
Автор

СообщениеДобавлено: 11 янв 2013, 22:17 

Не в сети
Супермодератор
Аватара пользователя
Дата регистрации:
11 апр 2010, 18:10
Спасибо: 5995 / 7
Сообщения: 56685
id="p-25224744-1">
Девушка с татуировкой дракона / Män som hatar kvinnor


Страна: Германия, Дания, Швеция, Норвегия
Жанр: триллер, драма, криминал, детектив
Год выпуска: 2009
Продолжительность: 02:32:43

Перевод #1: Профессиональный (полное дублирование)
Перевод #2: Профессиональный (двухголосый, закадровый)
Оригинальная аудиодорожка: Шведский
Cубтитры: Русские, Английские
Режиссер: Нильс Арден Оплев / Niels Arden Oplev

В ролях: Микаэл Нюквист (Mikael Blomkvist), Нуми Рапас (Lisbeth Salander), Питер Абер (Martin Vanger), Свен-Бертиль Таубе (Henrik Vanger), Петер Андерссон (Nils Bjurman), Ингвар Хирдвалль (Dirch Frode), Марика Лагеркранц (Cecilia Vanger), Лена Эндре (Erika Berger), Бьёрн Гранат (Gustav Morell), Ева Фрёлинг (Harriet Vanger), Михалис Куцогиннакис (Dragan Armanskij), Анника Халлин (Annika Giannini)
Дублёры: Илья Хвостиков (Mikael Blomkvist), Наталья Грачева (Lisbeth Salander), Владимир Антоник (Martin Vanger), Владимир Левашев (Henrik Vanger), Александр Коврижных (Nils Bjurman), Олег Куценко (Dirch Frode), Ольга Голованова (Cecilia Vanger), Марина Бакина (Erika Berger; Harriet Vanger; Isabella Vanger), Борис Токарев (Gustav Morell; Hans-Erik Wennerström; Harald Vanger), Виктор Бакин (Dragan Armanskij; Gunnar Brännlund), Василиса Воронина (Annika Giannini; Young Harriet Vanger), Галина Казакова (Malin Eriksson; Older lady; Agneta Salander)

Описание: Микаэль Блумквист - талантливый журналист, который верой и правдой добивается справедливости в самых скандальных делах - неожиданно терпит фиаско в своей деятельности, в результате чего вынужден отбыть срок лишения свободы.
В то же время влиятельный человек Хенрик Вангер поручает ему дело о пропаже его племянницы, которая таинственным образом исчезла из имения Вангеров и о которой вот уже множество лет нет никаких новостей. А попытки Хенрика разыскать родственницу также не приводят к положительным результатам.
Будучи скептиком, Микаэль сначала не верит в удачу, но вскоре обнаруживает запутанную и леденящую кровь историю, связанную с семейством Вангеров. В этом журналисту помогает неформальная особа Лисбет Саландер, прослывшая не только гениальным умом, фотографической памятью, но и прекрасными хакерскими способностями.
Рейтинг
imdb.com: 7.80 (62 709)
MPAA: R - Лицам до 17 лет обязательно присутствие взрослого
Качество видео: BDRip - Исходник BD Remux
Формат видео: m4v
Видео кодек: H.264
Аудио кодек: AAC
Видео: 1280х544 (2.35:1), 23,976 fps, H.264 3500 kbps avg, 0.209 bit/pixel
Аудио #1: Russian, 48,0 kHz, AAC LC, 2 ch, 170 kbps avg | DUB
Аудио #2: Russian, 48,0 kHz, AAC LC, 2 ch, 144 kbps avg | DVO
Аудио #3: Swedish, 48,0 kHz, AAC LC, 2 ch, 136 kbps avg | Original
MediaInfo
Код:
Код:
General
Complete name                            : D:\NEW\Новая папка (2)\Millennium.track_1_new.m4v
Format                                   : MPEG-4
Codec ID                                 : M4V
File size                                : 4.25 GiB
Duration                                 : 2h 32mn
Overall bit rate mode                    : Variable
Overall bit rate                         : 3 980 Kbps
Movie name                               : Девушка с татуировкой дракона
Performer                                : Нильс Арден Оплев
Genre                                    : триллер, драма, криминал
Recorded date                            : UTC 2009-02-27 07:00:00
Encoded date                             : UTC 2012-01-26 16:04:54
Tagged date                              : UTC 2012-01-27 16:17:48
Writing application                      : MkvToMp4 [www.mkvtomp4.ru] version 0.218
Cover                                    : Yes
desc                                     : Микаэль Блумквист — талантливый журналист, который верой и правдой добивается справедливости в самых скандальных делах — неожиданно терпит фиаско в своей деятельности, в результате чего вынужден отбыть срок лишения свободы.
ldes                                     : Микаэль Блумквист — талантливый журналист, который верой и правдой добивается справедливости в самых скандальных делах — неожиданно терпит фиаско в своей деятельности, в результате чего вынужден отбыть срок лишения свободы. В то же время влиятельный человек Хенрик Вангер поручает ему дело о пропаже его племянницы, которая таинственным образом исчезла из имения Вангеров и о которой вот уже множество лет нет никаких новостей. А попытки Хенрика разыскать родственницу также не приводят к положительным результатам.
hdvd                                     : 1
stik                                     : 9
akID                                     : -1
sfID                                     : 0
cnID                                     : 380056936
xid                                      : iPad:vendor_id:2009-402099
iTunEXTC                                 : mpaa|R|400|
iTunMOVI                                 : <?xml version="1.0" encoding="UTF-8"?> / <!DOCTYPE plist PUBLIC "-/Apple/DTD PLIST 1.0/EN" "http:/www.apple.com/DTDs/PropertyList-1.0.dtd"> / <plist version="1.0"> /  <dict> /   <key>cast</key> /   <array> /    <dict> /     <key>name</key> /     <string>Микаэл Нюквист</string> /    </dict> /    <dict> /     <key>name</key> /     <string>Нуми Рапас</string> /    </dict> /    <dict> /     <key>name</key> /     <string>Лена Эндре</string> /    </dict> /    <dict> /     <key>name</key> /     <string>Питер Абер</string> /    </dict> /    <dict> /     <key>name</key> /     <string>Владимир Антоник</string> /    </dict> /    <dict> /     <key>name</key> /     <string>Свен-Бертиль Таубе</string> /    </dict> /    <dict> /     <key>name</key> /     <string>Петер Андерссон</string> /    </dict> /    <dict> /     <key>name</key> /     <string>Ингвар Хирдвалль</string> /    </dict> /    <dict> /     <key>name</key> /     <string>Марика Лагеркранц</string> /    </dict> /    <dict> /     <key>name</key> /     <string>Бьёрн Гранат</string> /    </dict> /    <dict> /     <key>name</key> /     <string>Ева Фрёлинг</string> /    </dict> /    <dict> /     <key>name</key> /     <string>Михалис Куцогиннакис</string> /    </dict> /    <dict> /     <key>name</key> /     <string>Анника Халлин</string> /    </dict> /    <dict> /     <key>name</key> /     <string>София Ледарп</string> /    </dict> /   </array> /   <key>directors</key> /   <array> /    <dict> /     <key>name</key> /     <string>Нильс Арден Оплев</string> /    </dict> /   </array> /   <key>producers</key> /   <array> /    <dict> /     <key>name</key> /     <string>Сорен Стэмозе</string> /    </dict> /    <dict> /     <key>name</key> /     <string>Сьюзанн Биллберг-Ридхольм</string> /    </dict> /    <dict> /     <key>name</key> /     <string>Анни Форби Фернандез</string> /    </dict> /   </array> /   <key>screenwriters</key> /   <array> /    <dict> /     <key>name</key> /     <string>Николай Арсел</string> /    </dict> /    <dict> /     <key>name</key> /     <string>Расмус Хейстерберг</string> /    </dict> /    <dict> /     <key>name</key> /     <string>Стиг Ларссон</string> /    </dict> /   </array> /  </dict> / </plist>
Video
ID                                       : 1
Format                                   : AVC
Format/Info                              : Advanced Video Codec
Format profile                           : [email protected]
Format settings, CABAC                   : Yes
Format settings, ReFrames                : 10 frames
Codec ID                                 : avc1
Codec ID/Info                            : Advanced Video Coding
Duration                                 : 2h 32mn
Bit rate                                 : 3 500 Kbps
Maximum bit rate                         : 26.5 Mbps
Width                                    : 1 280 pixels
Height                                   : 544 pixels
Display aspect ratio                     : 2.35:1
Frame rate mode                          : Constant
Frame rate                               : 24.000 fps
Color space                              : YUV
Chroma subsampling                       : 4:2:0
Bit depth                                : 8 bits
Scan type                                : Progressive
Bits/(Pixel*Frame)                       : 0.209
Stream size                              : 3.73 GiB (88%)
Writing library                          : x264 core 119 r2106 07efeb4
Encoding settings                        : cabac=1 / ref=10 / deblock=1:-3:-2 / analyse=0x3:0x113 / me=umh / subme=9 / psy=1 / psy_rd=1.10:0.07 / mixed_ref=1 / me_range=36 / chroma_me=1 / trellis=2 / 8x8dct=1 / cqm=0 / deadzone=21,11 / fast_pskip=0 / chroma_qp_offset=-3 / threads=12 / sliced_threads=0 / nr=0 / decimate=0 / interlaced=0 / bluray_compat=0 / constrained_intra=0 / bframes=8 / b_pyramid=2 / b_adapt=2 / b_bias=0 / direct=3 / weightb=1 / open_gop=0 / weightp=2 / keyint=250 / keyint_min=24 / scenecut=40 / intra_refresh=0 / rc=2pass / mbtree=0 / bitrate=3500 / ratetol=1.0 / qcomp=0.60 / qpmin=0 / qpmax=69 / qpstep=4 / cplxblur=20.0 / qblur=0.5 / ip_ratio=1.40 / pb_ratio=1.30 / aq=2:0.90
Language                                 : English
Encoded date                             : UTC 2012-01-26 16:04:54
Tagged date                              : UTC 2012-01-26 16:07:42
Audio #1
ID                                       : 2
Format                                   : AAC
Format/Info                              : Advanced Audio Codec
Format profile                           : LC
Codec ID                                 : 40
Duration                                 : 2h 32mn
Bit rate mode                            : Variable
Bit rate                                 : 153 Kbps
Maximum bit rate                         : 225 Kbps
Channel(s)                               : 2 channels
Channel positions                        : Front: L R
Sampling rate                            : 48.0 KHz
Compression mode                         : Lossy
Stream size                              : 167 MiB (4%)
Title                                    : DUB
Language                                 : Russian
Encoded date                             : UTC 2012-01-26 16:06:51
Tagged date                              : UTC 2012-01-26 16:07:42
Audio #2
ID                                       : 3
Format                                   : AAC
Format/Info                              : Advanced Audio Codec
Format profile                           : LC
Codec ID                                 : 40
Duration                                 : 2h 32mn
Bit rate mode                            : Variable
Bit rate                                 : 157 Kbps
Maximum bit rate                         : 222 Kbps
Channel(s)                               : 2 channels
Channel positions                        : Front: L R
Sampling rate                            : 48.0 KHz
Compression mode                         : Lossy
Stream size                              : 171 MiB (4%)
Title                                    : DVO
Language                                 : Russian
Encoded date                             : UTC 2012-01-26 16:07:15
Tagged date                              : UTC 2012-01-26 16:07:42
Audio #3
ID                                       : 4
Format                                   : AAC
Format/Info                              : Advanced Audio Codec
Format profile                           : LC
Codec ID                                 : 40
Duration                                 : 2h 32mn
Bit rate mode                            : Variable
Bit rate                                 : 160 Kbps
Maximum bit rate                         : 223 Kbps
Channel(s)                               : 2 channels
Channel positions                        : Front: L R
Sampling rate                            : 48.0 KHz
Compression mode                         : Lossy
Stream size                              : 174 MiB (4%)
Title                                    : Original
Language                                 : Swedish
Encoded date                             : UTC 2012-01-26 16:07:29
Tagged date                              : UTC 2012-01-26 16:07:42
Text #1
ID                                       : 5
Format                                   : Timed text
Muxing mode                              : sbtl
Codec ID                                 : tx3g
Duration                                 : 2h 24mn
Bit rate mode                            : Variable
Bit rate                                 : 76 bps
Stream size                              : 80.9 KiB (0%)
Language                                 : Russian
Encoded date                             : UTC 2012-01-26 16:07:42
Tagged date                              : UTC 2012-01-26 16:07:42
Text #2
ID                                       : 6
Format                                   : Timed text
Muxing mode                              : sbtl
Codec ID                                 : tx3g
Duration                                 : 2h 32mn
Bit rate mode                            : Variable
Bit rate                                 : 47 bps
Stream size                              : 53.0 KiB (0%)
Language                                 : English
Encoded date                             : UTC 2012-01-26 16:07:42
Tagged date                              : UTC 2012-01-26 16:07:42

x264 log
Код:
Код:
x264 [info]: frame I:1735  Avg QP:16.73  size:100956
x264 [info]: frame P:43023 Avg QP:18.85  size: 36742
x264 [info]: frame B:175155 Avg QP:21.03  size: 12839
x264 [info]: consecutive B-frames:  2.3%  1.6%  4.7%  9.8% 13.1% 49.0%  7.5%  2.6%  9.3%
x264 [info]: mb I  I16..4: 10.5% 76.6% 12.9%
x264 [info]: mb P  I16..4:  1.0%  9.6%  0.7%  P16..4: 38.3% 26.7% 16.0%  0.0%  0.0%    skip: 7.7%
x264 [info]: mb B  I16..4:  0.0%  0.4%  0.0%  B16..8: 46.0% 11.1%  3.6%  direct: 6.3%  skip:32.4%  L0:46.1% L1:46.8% BI: 7.1%
x264 [info]: 8x8 transform intra:82.8% inter:56.7%
x264 [info]: direct mvs  spatial:98.6% temporal:1.4%
x264 [info]: coded y,uvDC,uvAC intra: 90.6% 75.5% 49.9% inter: 31.6% 22.7% 6.3%
x264 [info]: i16 v,h,dc,p: 43% 12% 13% 33%
x264 [info]: i8 v,h,dc,ddl,ddr,vr,hd,vl,hu: 10%  8% 10% 10% 14% 13% 13% 11% 12%
x264 [info]: i4 v,h,dc,ddl,ddr,vr,hd,vl,hu: 10%  8%  3% 10% 16% 15% 14% 11% 12%
x264 [info]: i8c dc,h,v,p: 45% 22% 18% 15%
x264 [info]: Weighted P-Frames: Y:8.7% UV:4.3%
x264 [info]: ref P L0: 41.2%  9.2% 19.2%  7.6%  6.7%  4.6%  4.5%  2.3%  2.3%  1.9%  0.3%  0.0%
x264 [info]: ref B L0: 62.2% 14.6%  8.2%  4.6%  3.5%  3.1%  2.5%  0.9%  0.4%
x264 [info]: ref B L1: 89.9% 10.1%
x264 [info]: kb/s:3496.50
encoded 219913 frames, 6.17 fps, 3496.50 kb/s

Скриншоты

Скриншоты с iPad




Вернуться к началу
 Профиль Отправить личное сообщение  
 
   Похожие торренты   Автор   Торрент   Размер 
В этой теме нет новых непрочитанных сообщений. Девушка с татуировкой дракона / Man som hatar kvinnor [Триллер, драма, криминал, 2009] BDRemux 1080p, Dub

salma3

3 | 12

35.75 ГБ

В этой теме нет новых непрочитанных сообщений. Мистер Робот / Mr. Robot [01x01-10 из 10] (Нильс Арден Оплев) [драма, криминал, 2015] WEB-DL 720p [IdeaFilm]

Dracon

6 | 7

13.41 ГБ

В этой теме нет новых непрочитанных сообщений. Мистер Робот / Mr. Robot [01x01-10 из 10] (Нильс Арден Оплев) [2015, драма, криминал, WEB-DL 720p | Gears Media]

Dracon

178 | 472

17.56 ГБ

В этой теме нет новых непрочитанных сообщений. Мистер Робот / Mr. Robot [01х01-10 из 10] (Нильс Арден Оплев) [драма, криминал, 2015] WEB-DLRip 720p [LostFilm]

Dracon

56 | 139

14.37 ГБ

В этой теме нет новых непрочитанных сообщений. Под куполом / Under the Dome [03x01-13 из 13] (Нильс Арден Оплев, Джек Бендер) [2015, фантастика, триллер, драма, детектив, WEB-DL 720p | BaibaKo]

Dracon

24 | 40

17.64 ГБ

В этой теме нет новых непрочитанных сообщений. Мистер Робот / Mr. Robot [01х01-10 из 10] (Нильс Арден Оплев) [драма, криминал, 2015] WEB-DLRip [NewStudio]

Dracon

11 | 13

5.82 ГБ

В этой теме нет новых непрочитанных сообщений. Мистер Робот / Mr. Robot [01х01-10 из 10] (Нильс Арден Оплев) [драма, криминал, 2015] WEB-DL 1080p [LostFilm]

Dracon

38 | 94

20.35 ГБ


Начать новую тему Ответить на тему  [ 1 сообщение ] 




Для Мосгорсуда, Роскомнадзора и рекламодателей:: mosgorsud-torrent[собачка]yandex.ru
cron