Торрент файл
скачать торрент магнет ссылка Добавлен: 11 янв 2013, 22:17
Размер: 681.22 МБ
Сидеров: 0
Личеров: 3
Автор

СообщениеДобавлено: 11 янв 2013, 22:17 

Не в сети
Супермодератор
Аватара пользователя
Дата регистрации:
11 апр 2010, 18:10
Спасибо: 5996 / 7
Сообщения: 56684
id="p-25224744-1">Волшебство Бэль Айл The Magic of Belle IsleСтрана: США
Жанр: Драма, комедия
Год выпуска: 2012
Продолжительность: 1:49:18
Перевод: Любительский (двухгоголосый закадровый)
Cубтитры: русские, английские |Евгения Орлова (Janetta)|
Оригинальная аудиодорожка: английский
Режиссер: Роб Райнер / Rob Reiner
В ролях:
Морган Фриман, Кенан Томпсон, Вирджиния Мэдсен, Эмма Фурманн, Мадлен Кэрролл, Николетт Пьерини, С.Дж. Уилсон, Эш Кристиан, Дебарго Саньял, Фред Уиллард.
Описание:
После череды неудач и трагедий судьба обязательно пошлет тех, кто способен растормошить тебя, поднять из спячки и вернуть к жизни. Такое возможно! Даже если ты - спивающийся писатель-инвалид. Каждому большому зануде, махнувшему на собственную жизнь рукой - маленький ангел-хранитель. А за неимением настоящего ангела, сойдет и обычная любопытная маленькая девочка... Ещё неоконченную повесть жизни всегда можно переписать заново!


Качество: HDRip
Исходник: =>HDRip-AVC<=
Формат: *.m4v
Видео кодек: H.264
Аудио кодек: ААС
Разрешение: 480x256
Видео: AVC, [email protected], 606 kbps, 23,976 fps
Аудио#1: AAC-LC, 2ch, 128 kbps, 48,0 KHz |Райдо|
Аудио#2: AAC-LC, 2ch, 128 kbps, 48,0 KHz
Субтитры: tx3g
Вшитая обложка: есть
Доп. теги (режиссёр, актёры и т.д.): прописаны
Главы: нет
MediaInfo
Общее
Полное имя : H:\The.Magic.of.Belle.Isle..m4v
Формат : MPEG-4
Идентификатор кодека : M4V
Размер файла : 681 Мбайт
Продолжительность : 1 ч. 49 м.
Режим общего битрейта : Переменный
Общий поток : 871 Кбит/сек
Название фильма : Волшебство Бэль Айл
Исполнитель : Роб Райнер
Жанр : драма, комедия
Дата записи : 2012-06-06
Дата кодирования : UTC 2012-10-17 20:00:30
Дата пометки : UTC 2012-10-17 20:15:38
Программа кодирования : MkvToMp4 [www.mkvtomp4.ru] version 0.221a
Правообладатель : Rip-CW
Обложка : Yes
iTunEXTC : mpaa|PG|200|
iTunMOVI : <?xml version="1.0" encoding="UTF-8"?> / <!DOCTYPE plist PUBLIC "-/Apple/DTD PLIST 1.0/EN" "http://www.apple.com/DTDs/PropertyList-1.0.dtd"> / <plist version="1.0"> / <dict> / <key>cast</key> / <array> / <dict> / <key>name</key> / <string>Морган Фриман</string> / </dict> / <dict> / <key>name</key> / <string>Кенан Томпсон</string> / </dict> / <dict> / <key>name</key> / <string>Вирджиния Мэдсен</string> / </dict> / <dict> / <key>name</key> / <string>Эмма Фурманн</string> / </dict> / <dict> / <key>name</key> / <string>Мадлен Кэрролл</string> / </dict> / <dict> / <key>name</key> / <string>Николетт Пьерини</string> / </dict> / <dict> / <key>name</key> / <string>С.Дж. Уилсон</string> / </dict> / <dict> / <key>name</key> / <string>Эш Кристиан</string> / </dict> / <dict> / <key>name</key> / <string>Дебарго Саньял</string> / </dict> / <dict> / <key>name</key> / <string>Фред Уиллард.</string> / </dict> / </array> / </dict> / </plist>
ldes : После череды неудач и трагедий судьба обязательно пошлет тех, кто способен растормошить тебя, поднять из спячки и вернуть к жизни. Такое возможно! Даже если ты - спивающийся писатель-инвалид. Каждому большому зануде, махнувшему на собственную жизнь рукой - маленький ангел-хранитель. А за неимением настоящего ангела, сойдет и обычная любопытная маленькая девочка... Ещё неоконченную повесть жизни всегда можно переписать заново!
hdvd : 0
stik : 0
Видео
Идентификатор : 1
Формат : AVC
Формат/Информация : Advanced Video Codec
Профиль формата : [email protected]
Параметр CABAC формата : Нет
Параметр ReFrames формата : 4 кадра
Идентификатор кодека : avc1
Идентификатор кодека/Информация : Advanced Video Coding
Продолжительность : 1 ч. 49 м.
Битрейт : 606 Кбит/сек
Максимальный битрейт : 4590 Кбит/сек
Ширина : 480 пикселей
Высота : 256 пикселей
Соотношение сторон : 1,85:1
Режим частоты кадров : Постоянный
Частота кадров : 23,976 кадра/сек
Цветовое пространство : YUV
Субдискретизация насыщенности : 4:2:0
Битовая глубина : 8 бит
Тип развёртки : Прогрессивная
Бит/(Пиксели*Кадры) : 0.206
Размер потока : 474 Мбайт (70%)
Библиотека кодирования : x264 core 119 r2106 07efeb4
Настройки программы : cabac=0 / ref=4 / deblock=1:-1:-1 / analyse=0x1:0x111 / me=umh / subme=9 / psy=1 / psy_rd=1.00:0.00 / mixed_ref=0 / me_range=16 / chroma_me=1 / trellis=1 / 8x8dct=0 / cqm=0 / deadzone=21,11 / fast_pskip=0 / chroma_qp_offset=-2 / threads=4 / sliced_threads=0 / nr=0 / decimate=0 / interlaced=0 / bluray_compat=0 / constrained_intra=0 / bframes=0 / weightp=0 / keyint=250 / keyint_min=23 / scenecut=40 / intra_refresh=0 / rc_lookahead=40 / rc=2pass / mbtree=1 / bitrate=606 / ratetol=1.0 / qcomp=0.60 / qpmin=0 / qpmax=69 / qpstep=4 / cplxblur=20.0 / qblur=0.5 / ip_ratio=1.40 / aq=1:1.00
Язык : English
Дата кодирования : UTC 2012-10-17 20:00:30
Дата пометки : UTC 2012-10-17 20:01:31
Аудио #1
Идентификатор : 2
Формат : AAC
Формат/Информация : Advanced Audio Codec
Профиль формата : LC
Идентификатор кодека : 40
Продолжительность : 1 ч. 49 м.
Вид битрейта : Переменный
Битрейт : 128 Кбит/сек
Максимальный битрейт : 146 Кбит/сек
Каналы : 2 канала
Расположение каналов : Front: L R
Частота : 48,0 КГц
Метод сжатия : С потерями
Размер потока : 100 Мбайт (15%)
Язык : Russian
Дата кодирования : UTC 2012-10-17 20:01:17
Дата пометки : UTC 2012-10-17 20:01:31
Аудио #2
Идентификатор : 3
Формат : AAC
Формат/Информация : Advanced Audio Codec
Профиль формата : LC
Идентификатор кодека : 40
Продолжительность : 1 ч. 49 м.
Вид битрейта : Переменный
Битрейт : 128 Кбит/сек
Максимальный битрейт : 135 Кбит/сек
Каналы : 2 канала
Расположение каналов : Front: L R
Частота : 48,0 КГц
Метод сжатия : С потерями
Размер потока : 100 Мбайт (15%)
Язык : English
Дата кодирования : UTC 2012-10-17 20:01:24
Дата пометки : UTC 2012-10-17 20:01:31
Текст #1
Идентификатор : 4
Формат : Timed text
Режим смешивания : sbtl
Идентификатор кодека : tx3g
Продолжительность : 1 ч. 45 м.
Вид битрейта : Переменный
Битрейт : 131 бит/сек
Размер потока : 101 Кбайт (0%)
Язык : Russian
Дата кодирования : UTC 2012-10-17 20:01:31
Дата пометки : UTC 2012-10-17 20:01:31
Текст #2
Идентификатор : 5
Формат : Timed text
Режим смешивания : sbtl
Идентификатор кодека : tx3g
Продолжительность : 1 ч. 45 м.
Вид битрейта : Переменный
Битрейт : 76 бит/сек
Размер потока : 58,9 Кбайт (0%)
Язык : English
Дата кодирования : UTC 2012-10-17 20:01:31
Дата пометки : UTC 2012-10-17 20:01:31
Скриншоты



Вернуться к началу
 Профиль Отправить личное сообщение  
 
   Похожие торренты   Автор   Торрент   Размер 
В этой теме нет новых непрочитанных сообщений. Практическая магия / Practical Magic [фэнтези, драма, мелодрама, комедия, 1998] HDRip, Mvo

salma3

39 | 32

1.79 ГБ

В этой теме нет новых непрочитанных сообщений. Супер Майк XXL / Magic Mike XXL (Грегори Джейкобс) [комедия, музыка, драма, 2015] HDRip, Dub [iTunes]

Dracon

354 | 20

1.46 ГБ

В этой теме нет новых непрочитанных сообщений. Супер Майк XXL / Magic Mike XXL (Грегори Джейкобс) [комедия, музыка, драма, 2015] HDRip, Dub [iTunes]

Dracon

75 | 3

2.05 ГБ

В этой теме нет новых непрочитанных сообщений. Третий лишний / Ted [фэнтези, комедия, 2012] BDRip 720p, Dub [iPad] [Лицензия]

salma3

16 | 10

2.67 ГБ

В этой теме нет новых непрочитанных сообщений. Волшебный христианин / The Magic Christian [комедия, 1969] HDRip, Avo

salma3

52 | 19

1.46 ГБ

В этой теме нет новых непрочитанных сообщений. Наше лето / La belle saison [Драма, мелодрама, 2015] HDRip, dvo

Dracon

57 | 8

1.37 ГБ

В этой теме нет новых непрочитанных сообщений. Красавица Мемфиса / Memphis Belle [военный, драма, боевик, 1990] HDRip, Dub [Варус-Видео]

salma3

0 | 0

1.45 ГБ


Начать новую тему Ответить на тему  [ 1 сообщение ] 




Для Мосгорсуда, Роскомнадзора и рекламодателей:: mosgorsud-torrent[собачка]yandex.ru
cron