Торрент файл
скачать торрент магнет ссылка Добавлен: 11 янв 2013, 22:17
Размер: 1.77 ГБ
Сидеров: 2
Личеров: 4
Автор

СообщениеДобавлено: 11 янв 2013, 22:17 

Не в сети
Супермодератор
Аватара пользователя
Дата регистрации:
11 апр 2010, 18:10
Спасибо: 5996 / 7
Сообщения: 56684
id="p-25224744-1">Великан
The Mighty
Код:
[font=Arial]Общая информация[/font]
Год:1998
Страна:США
Жанр:драма, комедия
Время:100 мин.
MPAA:PG-13


Код:
[font=Arial]Создатели и актеры[/font]
Режисер:Питер Челсом
Актеры:Шэрон Стоун, Гарри Дин Стэнтон, Джина Роулэндс,
 Элден Хенсон, Дуглас Биссет, Джозеф Перрино, Дов Тифенбах,
 Майкл Колтон, Дэниэл Ли, Ив Кроуфорд


Описание и рейтинги
Случилось так, что неожиданная встреча мистическим образом изменила судьбы двух одиноких школьников. Они были абсолютно не похожи друг на друга: Макс — молчаливый, застенчивый и неуклюжий гигант и Кевин — маленький, сообразительный и неизлечимо больной.
В своем классе оба мальчика служили постоянными объектами всеобщих насмешек и издевательств. И тогда они решили противостоять несправедливости, объединившись в единое целое — в отважного и могучего рыцаря-великана…
Код:
[font=Arial]
[img]http://farm5.static.flickr.com/4097/4760489378_dd4b87746d_o.gif[/img][url=http://www.kinopoisk.ru/level/1/film/4384/][b]8.11[/b] / 10[/url][/font]


Код:
[font=Arial]Технические параметры[/font]
Исходник:[url=http://rutracker.org/forum/viewtopic.php?t=2974739]http://rutracker.org/forum/viewtopic.php?t=2974739[/url], перепаковка !
Видео:702x552 (16/9); 1872 Kbps; 25 fps;
Аудио:Русский, Английский
Перевод:Профессиональный (многоголосый, закадровый)
Cубтитры:Russian, English
Аудио дорожки и переводы:
AAC,Russian Stereo 2.0,48 kHz, 160 kbps
AAC, English Stereo 2.0, 48 kHz, 160 kbps
AC-3, English DD 5.1,48 kHz, 384 kbps

MediaInfo
Код:
Код:
Полное имя : F:\The Mighty.m4v
Формат : MPEG-4
Идентификатор кодека : M4V
Размер файла : 1,77 Гбайт
Продолжительность : 1 ч. 36 м.
Общий поток : 2628 Кбит/сек
Название фильма : Velikan
Исполнитель : Peter Chelsom
Жанр : Drama
Дата записи : 1998
Обложка : Yes
tvsn : 0
tves : 0
desc : Случилось так, что неожиданная встреча мистическим образом изменила судьбы двух одиноких школьников.
ldes : Случилось так, что неожиданная встреча мистическим образом изменила судьбы двух одиноких школьников. Они были абсолютно не похожи друг на друга: Макс — молчаливый, застенчивый и неуклюжий гигант и Кевин — маленький, сообразительный и неизлечимо больной.
hdvd : 0
stik : 9
iTunEXTC : mpaa|PG-13|300|
iTunMOVI : / / / / cast / / / name / Шэрон Стоун / / / name / Гарри Дин Стэнтон / / / name / Джина Роулэндс / / / name / Элден Хенсон / / / name / Дуглас Биссет / / / name / Джозеф Перрино / / / name / Дов Тифенбах / / / name / Майкл Колтон / / / name / Дэниэл Ли / / / name / Ив Кроуфорд / / / directors / / / name / Питер Челсом / / / producers / / / name / Дон Кармоди / / / name / Джейсон Кларк / / / name / Саймон Филдс / / / screenwriters / / / name / Родман Филбрик / / / name / Чарльз Ливитт / / / /
Видео
Идентификатор : 1
Формат : AVC
Формат/Информация : Advanced Video Codec
Профиль формата : [email protected]
Параметр CABAC формата : Да
Параметр ReFrames формата : 13 кадры
Идентификатор кодека : avc1
Идентификатор кодека/Информация : Advanced Video Coding
Продолжительность : 1 ч. 36 м.
Вид битрейта : Переменный
Битрейт : 1872 Кбит/сек
Максимальный битрейт : 15,3 Мбит/сек
Ширина : 702 пикс.
Высота : 552 пикс.
Соотношение сторон : 16:9
Режим частоты кадров : Постоянный
Частота кадров : 25,000 кадр/сек
Цветовое пространство : YUV
Подвыборка цветности : 4:2:0
Битовая глубина : 8 бит
Тип развёртки : Прогрессивная
Бит/(Пиксели*Кадры) : 0.193
Размер потока : 1,26 Гбайт (71%)
Заголовок : Великан / The Mighty [1998]
Библиотека кодирования : x264 core 94 r1583kMod 7608d73
Настройки программы : cabac=1 / ref=13 / deblock=1:-3:-3 / analyse=0x3:0x133 / me=umh / subme=9 / psy=1 / psy_rd=0.80:0.10 / mixed_ref=1 / me_range=24 / chroma_me=1 / trellis=2 / 8x8dct=1 / cqm=0 / deadzone=21,11 / fast_pskip=1 / chroma_qp_offset=-3 / threads=3 / sliced_threads=0 / nr=0 / decimate=1 / interlaced=0 / constrained_intra=0 / bframes=8 / b_pyramid=2 / b_adapt=2 / b_bias=0 / direct=1 / weightb=1 / weightp=2 / keyint=250 / keyint_min=25 / scenecut=40 / intra_refresh=0 / rc_lookahead=80 / rc=crf / mbtree=1 / crf=18.4000 / qcomp=0.70 / qpmin=10 / qpmax=51 / qpstep=4 / ip_ratio=1.10 / aq=2:1.30
Язык : English
Дата кодирования : UTC 2011-09-07 10:01:32
Дата пометки : UTC 2011-09-07 10:03:46
Коэффициенты матрицы : BT.470-6 System B, BT.470-6 System G, BT.601-6 625, BT.1358 625, BT.1700 625 PAL, BT.1700 625 SECAM, IEC 61966-2-4 601
Аудио #1
Идентификатор : 2
Формат : AAC
Формат/Информация : Advanced Audio Codec
Профиль формата : LC
Идентификатор кодека : 40
Продолжительность : 1 ч. 36 м.
Вид битрейта : Переменный
Битрейт : 178 Кбит/сек
Максимальный битрейт : 222 Кбит/сек
Канал(ы) : 2 канала(ов)
Расположение каналов : Front: L R
Частота : 48,0 КГц
Размер потока : 122 Мбайт (7%)
Заголовок : MVO -ac3 2ch 192kbps
Язык : Russian
Аудио #2
Идентификатор : 3
Формат : AAC
Формат/Информация : Advanced Audio Codec
Профиль формата : LC
Идентификатор кодека : 40
Продолжительность : 1 ч. 36 м.
Вид битрейта : Переменный
Битрейт : 192 Кбит/сек
Максимальный битрейт : 225 Кбит/сек
Канал(ы) : 2 канала(ов)
Расположение каналов : Front: L R
Частота : 48,0 КГц
Размер потока : 131 Мбайт (7%)
Заголовок : AAC Orig -ac3 6ch 384kbps
Язык : English
Аудио #3
Идентификатор : 4
Формат : AC-3
Формат/Информация : Audio Coding 3
Расширение режима : CM (complete main)
Идентификатор кодека : ac-3
Продолжительность : 1 ч. 36 м.
Вид битрейта : Постоянный
Битрейт : 384 Кбит/сек
Канал(ы) : 6 канала(ов)
Расположение каналов : Front: L C R, Side: L R, LFE
Частота : 48,0 КГц
Битовая глубина : 16 бит
Размер потока : 265 Мбайт (15%)
Заголовок : AC3 Orig -ac3 6ch 384kbps
Язык : English
Текст #1
Идентификатор : 5
Формат : Timed text
Режим смешивания : sbtl
Идентификатор кодека : tx3g
Продолжительность : 1 ч. 31 м.
Вид битрейта : Переменный
Битрейт : 83 бит/сек
Размер потока : 55,2 Кбайт (0%)
Заголовок : *srt
Язык : Russian
Текст #2
Идентификатор : 6
Формат : Timed text
Режим смешивания : sbtl
Идентификатор кодека : tx3g
Продолжительность : 1 ч. 36 м.
Вид битрейта : Переменный
Битрейт : 55 бит/сек
Размер потока : 38,7 Кбайт (0%)
Заголовок : *srt
Язык : English
Текст #3
Идентификатор : 8
Формат : Apple text
Идентификатор кодека : text
Продолжительность : 1 ч. 36 м.
Вид битрейта : Переменный
Битрейт : 1 бит/сек
Размер потока : 665 байт (0%)

log
Код:
Код:
x264 [info]: frame I:1212  Avg QP:15.95  size: 43023
x264 [info]: frame P:28995 Avg QP:17.15  size: 19532
x264 [info]: frame B:114264 Avg QP:18.77  size:  6421
x264 [info]: consecutive B-frames:  0.9%  1.8%  6.8% 10.7%  7.9% 69.5%  1.5%  0.5%  0.4%
x264 [info]: mb I  I16..4: 10.8% 68.1% 21.1%
x264 [info]: mb P  I16..4:  2.4% 15.9%  2.0%  P16..4: 45.4% 23.2%  5.9%  0.4%  0.3%    skip: 4.7%
x264 [info]: mb B  I16..4:  0.2%  1.7%  0.3%  B16..8: 35.1% 10.4%  2.2%  direct:12.1%  skip:38.1%  L0:35.9% L1:45.6% BI:18.5%
x264 [info]: 8x8 transform intra:77.6% inter:51.3%
x264 [info]: coded y,uvDC,uvAC intra: 88.1% 89.5% 71.9% inter: 28.4% 33.3% 7.3%
x264 [info]: i16 v,h,dc,p: 32% 11% 14% 44%
x264 [info]: i8 v,h,dc,ddl,ddr,vr,hd,vl,hu: 19%  8%  7%  8% 11% 14%  9% 13% 11%
x264 [info]: i4 v,h,dc,ddl,ddr,vr,hd,vl,hu: 19%  7%  5%  8% 13% 15% 10% 12% 11%
x264 [info]: i8c dc,h,v,p: 39% 21% 23% 16%
x264 [info]: Weighted P-Frames: Y:6.8%
x264 [info]: ref P L0: 40.9%  9.9% 18.1%  6.4%  6.0%  4.0%  4.0%  2.1%  2.1%  1.6%  1.7%  1.4%  1.5%  0.3%  0.0%
x264 [info]: ref B L0: 77.6% 10.7%  3.9%  2.0%  1.4%  1.2%  1.0%  0.6%  0.5%  0.5%  0.3%  0.2%
x264 [info]: ref B L1: 94.8%  5.2%
x264 [info]: kb/s:1871.84
encoded 144471 frames, 5.70 fps, 1871.84 kb/s

Скриншоты


Релиз подготовлен специально для просмотра на Apple TV второго поколения и iPad.
Пользователям Windows рекомендуется просматривать в VLC.
Релиз подготовлен для просмотра на следующих девайсах iPad, iPhone 4, ATV2, iPod Touch.



Вернуться к началу
 Профиль Отправить личное сообщение  
 
   Похожие торренты   Автор   Торрент   Размер 
В этой теме нет новых непрочитанных сообщений. Великан / The Mighty [Драма, комедия, 1998] WEB-DL 720p, Mvo

salma3

27 | 5

3.47 ГБ

В этой теме нет новых непрочитанных сообщений. Они все смеялись / They all laughed (Питер Богданович / Peter Bogdanovich) [1981г., комедия, DVDRip] MVO

Alfredovich

10 | 3

1.46 ГБ

В этой теме нет новых непрочитанных сообщений. Пусть получит своё / Let Him Have It (Питер Медак / Peter Medak) [1991г., Франция, криминальная драма, DVDRip] AVO

Alfredovich

0 | 0

1.45 ГБ

В этой теме нет новых непрочитанных сообщений. Большой и добрый великан / The BFG [фэнтези, приключения, семейный, 2016] BDRip 720p, Dub [iPad] [Лицензия]

salma3

0 | 0

2.26 ГБ

В этой теме нет новых непрочитанных сообщений. Ричард Питер Джонсон / Richard Peter Johnson [комедия, 2015] WEBDLRip, Dvo

salma3

34 | 12

1.36 ГБ

В этой теме нет новых непрочитанных сообщений. Кролик Питер / Peter Rabbit [фэнтези, комедия, семейный, 2018] BDRip-AVC, Dub [iTunes]

salma3

961 | 407

2.02 ГБ

В этой теме нет новых непрочитанных сообщений. Кролик Питер / Peter Rabbit [фэнтези, комедия, семейный, 2018] BDRip, Dub [Лицензия]

salma3

131 | 7

1.47 ГБ


Начать новую тему Ответить на тему  [ 1 сообщение ] 




Для Мосгорсуда, Роскомнадзора и рекламодателей:: mosgorsud-torrent[собачка]yandex.ru
cron