Торрент файл
скачать торрент магнет ссылка Добавлен: 11 янв 2013, 22:17
Размер: 224.26 МБ
Сидеров: 1
Личеров: 3
Автор

СообщениеДобавлено: 11 янв 2013, 22:17 

Не в сети
Супермодератор
Аватара пользователя
Дата регистрации:
11 апр 2010, 18:10
Спасибо: 5995 / 7
Сообщения: 56685
id="p-25224744-1">Ледниковый период: Гигантское Рождество
Ice Age: A Mammoth Christmas
Год выпуска: 2011 | Страна: США | Жанр: мультфильм | Продолжительность: 00:25:33 | Перевод : Профессиональный (полное дублирование) | Cубтитры: есть (английские)
Режиссёр:
Карен Дишер
В ролях:
Джон Легуизамо, Шонн Уильям Скотт, ТиДжей Миллер, Кьяра Браво, Куин Латифа, Дэнис Лири, Рэй Романо, Джошуа Раш, Крис Уэдж и др.
Описание:Когда Сид случайно разрушает рождественский камень, Мэнни говорит ему, что Сид попал в черный список Санты, и что ленивцу придется лететь на северный полюс просить извинения у Санты. На северном полюсе Сид хотел все сделать как лучше, но только усугубил ситуацию. Теперь дело за Мэнни и компанией, только они объединившись сохранят Рождество для всего мира!
Качество: BDRip | Формат: *.mov | Видео кодек: H.264 | аудио кодек: ААС | Разрешение: 576х320 | Другие параметры видео: 960 Кбит/сек; 23,976 кадр/сек |
Аудио 1 : 128 Кбит/сек; 2 канала; 48,0 КГц
Аудио 2 : 128 Кбит/сек; 2 канала; 48,0 КГц
Вшитая обложка: есть | Доп. теги (режиссёр, актёры и т.д.): частично | Главы: нет
Все раздачи "Ледниковый период: Гигантское Рождество" в разделе Видео (iPhone, iPod Touch)
MediaInfo
Код:
Код:
Общее
Полное имя                       : E:\Раздачи\Видео\Ice Age A Mammoth Christmas\Iceage_xmas_BDRip.320p.Stroller.mov
Формат                           : MPEG-4
Профиль формата                  : QuickTime
Идентификатор кодека             : qt
Размер файла                     : 224 Мбайт
Продолжительность                : 25 м.
Режим общего битрейта            : Переменный
Общий поток                      : 1227 Кбит/сек
Название фильма                  : Ледниковый период: Гигантское Рождество
Исполнитель                      : Ice Age: A Mammoth Christmas
Жанр                             : Animation
Дата записи                      : UTC 2011-11-24 08:00:00
Дата кодирования                 : UTC 2011-12-27 17:18:39
Дата пометки                     : UTC 2011-12-27 17:18:51
Программа кодирования            : HandBrake 0.9.5 2011010300
Правообладатель                  : Stroller
Обложка                          : Yes
Примечание                       : © by RG Apple from rutracker.org
com.apple.quicktime.player.movie : (Binary)
iTunEXTC                         : us-tv|TV-PG|400|
iTunMOVI                         : <?xml version="1.0" encoding="UTF-8"?> / <!DOCTYPE plist PUBLIC "-/Apple/DTD PLIST 1.0/EN" "http:/www.apple.com/DTDs/PropertyList-1.0.dtd"> / <plist version="1.0"> / <dict> /  <key>cast</key> /  <array> /   <dict> /    <key>name</key> /    <string>Джон Легуизамо</string> /   </dict> /   <dict> /    <key>name</key> /    <string>Шонн Уильям Скотт</string> /   </dict> /   <dict> /    <key>name</key> /    <string>ТиДжей Миллер</string> /   </dict> /   <dict> /    <key>name</key> /    <string>Кьяра Браво</string> /   </dict> /   <dict> /    <key>name</key> /    <string>Куин Латифа</string> /   </dict> /   <dict> /    <key>name</key> /    <string>Дэнис Лири</string> /   </dict> /   <dict> /    <key>name</key> /    <string>Рэй Романо</string> /   </dict> /   <dict> /    <key>name</key> /    <string>Джошуа Раш</string> /   </dict> /   <dict> /    <key>name</key> /    <string>Крис Уэдж и др.</string> /   </dict> /  </array> /  <key>directors</key> /  <array> /   <dict> /    <key>name</key> /    <string>Карен Дишер</string> /   </dict> /  </array> / </dict> / </plist>
desc                             : Когда Сид случайно разрушает рождественский камень, Мэнни говорит ему, что Сид попал в черный список Санты, и что ленивцу придется лететь на северный полюс просить извинения у Санты...
ldes                             : Когда Сид случайно разрушает рождественский камень, Мэнни говорит ему, что Сид попал в черный список Санты, и что ленивцу придется лететь на северный полюс просить извинения у Санты. На северном полюсе Сид хотел все сделать как лучше, но только усугубил ситуацию. Теперь дело за Мэнни и компанией, только они объединившись сохранят Рождество для всего мира!
stik                             : 9
Видео
Идентификатор                    : 1
Формат                           : AVC
Формат/Информация                : Advanced Video Codec
Профиль формата                  : [email protected]
Параметр CABAC формата           : Нет
Параметр ReFrames формата        : 2 кадра
Идентификатор кодека             : avc1
Идентификатор кодека/Информация  : Advanced Video Coding
Продолжительность                : 25 м.
Битрейт                          : 960 Кбит/сек
Ширина                           : 576 пикселей
Высота                           : 320 пикселей
Соотношение сторон               : 16:9
Режим частоты кадров             : Переменный
Частота кадров                   : 23,976 кадра/сек
Минимальная частота кадров       : 11,987 кадров/сек
Максимальная частота кадров      : 23,981 кадра/сек
Цветовое пространство            : YUV
Субдискретизация насыщенности    : 4:2:0
Битовая глубина                  : 8 бит
Тип развёртки                    : Прогрессивная
Бит/(Пиксели*Кадры)              : 0.217
Размер потока                    : 176 Мбайт (78%)
Заголовок                        : Обработчик видео Apple / Обработчик псевдонимов Apple
Библиотека кодирования           : x264 core 112
Настройки программы              : cabac=0 / ref=2 / deblock=1:0:0 / analyse=0x1:0x111 / me=umh / subme=6 / psy=1 / psy_rd=1.00:0.00 / mixed_ref=1 / me_range=16 / chroma_me=1 / trellis=0 / 8x8dct=0 / cqm=0 / deadzone=21,11 / fast_pskip=1 / chroma_qp_offset=-2 / threads=6 / sliced_threads=0 / nr=0 / decimate=1 / interlaced=0 / constrained_intra=0 / bframes=0 / weightp=0 / keyint=240 / keyint_min=23 / scenecut=40 / intra_refresh=0 / rc_lookahead=40 / rc=2pass / mbtree=1 / bitrate=960 / ratetol=1.0 / qcomp=0.60 / qpmin=3 / qpmax=51 / qpstep=4 / cplxblur=20.0 / qblur=0.5 / ip_ratio=1.40 / aq=1:1.00
Дата кодирования                 : UTC 2011-12-27 15:20:09
Дата пометки                     : UTC 2011-12-27 17:18:51
Основные цвета                   : BT.709-5, BT.1361, IEC 61966-2-4, SMPTE RP177
Характеристики трансфера         : BT.709-5, BT.1361
Коэффициенты матрицы             : BT.709-5, BT.1361, IEC 61966-2-4 709, SMPTE RP177
Аудио #1
Идентификатор                    : 2
Формат                           : AAC
Формат/Информация                : Advanced Audio Codec
Профиль формата                  : LC
Идентификатор кодека             : 40
Продолжительность                : 25 м.
Вид битрейта                     : Переменный
Битрейт                          : 128 Кбит/сек
Максимальный битрейт             : 243 Кбит/сек
Каналы                           : 2 канала
Расположение каналов             : Front: L R
Частота                          : 48,0 КГц
Метод сжатия                     : С потерями
Размер потока                    : 23,3 Мбайт (10%)
Заголовок                        : Обработчик звука Apple / Обработчик псевдонимов Apple
Язык                             : 32
Дата кодирования                 : UTC 2011-12-27 15:20:09
Дата пометки                     : UTC 2011-12-27 17:18:51
Аудио #2
Идентификатор                    : 3
Формат                           : AAC
Формат/Информация                : Advanced Audio Codec
Профиль формата                  : LC
Идентификатор кодека             : 40
Продолжительность                : 25 м.
Вид битрейта                     : Переменный
Битрейт                          : 128 Кбит/сек
Максимальный битрейт             : 244 Кбит/сек
Каналы                           : 2 канала
Расположение каналов             : Front: L R
Частота                          : 48,0 КГц
Метод сжатия                     : С потерями
Размер потока                    : 23,4 Мбайт (10%)
Заголовок                        : Обработчик звука Apple / Обработчик псевдонимов Apple
Язык                             : English
Дата кодирования                 : UTC 2011-12-27 15:20:09
Дата пометки                     : UTC 2011-12-27 17:18:51
Текст #1
Идентификатор                    : 4
Формат                           : Apple text
Идентификатор кодека             : text
Продолжительность                : 25 м.
Вид битрейта                     : Постоянный
Битрейт                          : 1 бит/сек
Размер потока                    : 184 байт (0%)
Заголовок                        : Обработчик текста Apple / Обработчик псевдонимов Apple
Дата кодирования                 : UTC 2011-12-27 15:20:09
Дата пометки                     : UTC 2011-12-27 17:18:51
Текст #2
Идентификатор                    : 5
Формат                           : Timed text
Режим смешивания                 : sbtl
Идентификатор кодека             : tx3g
Продолжительность                : 25 м.
Вид битрейта                     : Переменный
Битрейт                          : 80 бит/сек
Размер потока                    : 14,9 Кбайт (0%)
Заголовок                        : Обработчик субтитров Apple / Обработчик псевдонимов Apple
Язык                             : English
Дата кодирования                 : UTC 2011-12-27 17:17:42
Дата пометки                     : UTC 2011-12-27 17:18:51
Material_Duration                : 1528944
Material_StreamSize              : 15287

Скриншоты
Как переключить звуковую дорожку / субтитры / главы
iPhone / iPod Touch
Выбрать альтернативный язык звукового сопровождения: Нажмите , затем выберите язык из списка "Аудио".
Показать или скрыть субтитры: Нажмите , затем из списка "Субтитры" выберите язык или "Выкл".
Выбрать главу (эпизод): Нажмите , затем из списка выберете нужную главу (эпизод).
iPod Classic, Nano
Видео -> настройки -> вкл./выкл. альтернативное аудио
Видео -> настройки -> вкл./выкл. субтитры



Вернуться к началу
 Профиль Отправить личное сообщение  
 
   Похожие торренты   Автор   Торрент   Размер 
В этой теме нет новых непрочитанных сообщений. Рождество Чарли Брауна / A Charlie Brown Christmas [мультфильм, комедия, семейный, короткометражка, 1965] BDRip 720p, Mvo

salma3

28 | 11

2.32 ГБ

В этой теме нет новых непрочитанных сообщений. Ледниковый период: Столкновение неизбежно / Ice Age: Collision Course [мультфильм, фантастика, комедия, 2016] BDRip-AVC, Dub [Лицензия]

salma3

142 | 53

1.46 ГБ

В этой теме нет новых непрочитанных сообщений. Ледниковый период: Столкновение неизбежно / Ice Age: Collision Course [Мультфильм, полнометражный, комедия, 2016] BDRip, Dub [Лицензия]

salma3

169 | 37

1.46 ГБ

В этой теме нет новых непрочитанных сообщений. Ледниковый период: Столкновение неизбежно / Ice Age: Collision Course [Мультфильм, комедия, приключения, семейный, 2016] BDRip 720p, Dub [Лицензия]

salma3

4 | 5

5.05 ГБ

В этой теме нет новых непрочитанных сообщений. Ледниковый период: Столкновение неизбежно / Ice Age: Collision Course [Мультфильм, фантастика, комедия, 2016] BDRip 1080p, Dub [Лицензия] [3D-Video]

salma3

231 | 79

9.06 ГБ

В этой теме нет новых непрочитанных сообщений. Ледниковый период: Столкновение неизбежно (мультфильм, фантастика, комедия, приключения, семейный,2016) BDRip от ExKinoRay | iTunes

marya111

202 | 2

1.42 ГБ

В этой теме нет новых непрочитанных сообщений. Ледниковый период: Столкновение неизбежно / Ice Age: Collision Cours [мультфильм, фантастика, комедия, приключения, семейный, 2016] BDRip 1080p, Dub [Лицензия]

salma3

165 | 90

7.79 ГБ


Начать новую тему Ответить на тему  [ 1 сообщение ] 




Для Мосгорсуда, Роскомнадзора и рекламодателей:: mosgorsud-torrent[собачка]yandex.ru
cron