Торрент файл
скачать торрент магнет ссылка Добавлен: 11 янв 2013, 22:16
Размер: 1.68 ГБ
Сидеров: 1
Личеров: 3
Автор

СообщениеДобавлено: 11 янв 2013, 22:16 

Не в сети
Супермодератор
Аватара пользователя
Дата регистрации:
11 апр 2010, 18:10
Спасибо: 5996 / 7
Сообщения: 56684
id="p-25224744-1">Самаритянин / The Samaritan
«You've got to know a secret to tell a secret.»
Год выпуска: 2012
Страна: Канада
Студия: H2O Motion Pictures, Middle Child Films Inc., Quickfire Films
Жанр: Триллер
Продолжительность: 01:33:02
Рейтинг MPAA: R
Перевод 1: Авторский (одноголосый закадровый) А.Дольский
Перевод 2: Любительский (двухголосый закадровый) Перевод - Чужая, Озвучка: Команда Чип и Дейл
Оригинальная аудиодорожка: есть
Cубтитры: английские
Режиссёр: Дэвид Уивер/ David Weaver
Сценарий: Элан Мэстай, Дэвид Уивер
Продюссер: Андрас Хамори
В ролях: Сэмюэл Л. Джексон, Люк Кирби, Рут Негга, Том Уилкинсон, Джил Беллоуз, Аарон Пул, Том МакКэмус, Марта Барнс, Стефен Макинтайр, Алан С. Петерсон
Описание:
В центре повествования — мошенник, который отсидел за свои преступления 20 лет и решил завязать. Он встречает молодую женщину, с которой хотел бы иметь совместное будущее, а тут к нему подкатывает сын бывшего подельника, который уговаривает его на последнее дело.
Доп. информация:

Качество исходника: BDRemux - http://rutracker.org/forum/viewtopic.php?t=4289864
Качество: BDRip
Разрешение: 1024х432
Формат: MP4
Видео: H.264, 2,40:1 , 2200kbit/s; 23.976fps
Аудио 1: Russian/AVO, AAC, 126kbit/s; 2ch; 48KHz
Аудио 2: Russian/DVO, AAC, 126kbit/s; 2ch; 48KHz
Аудио 3: English/Original, AAC, 126kbit/s; 2ch; 48KHz
iTunes Meta Tags
Код:
XID: Apple:vendor_id:2012-584042
contentID: 513439441
Screenwriters: Элан Мэстай, Дэвид Уивер
Producers: Андрас Хамори
Director: Дэвид Уивер
Cast:Сэмюэл Л. Джексон, Люк Кирби, Рут Негга, Том Уилкинсон, Джил Беллоуз, Аарон Пул, Том МакКэмус, Марта Барнс, Стефен Макинтайр, Алан С. Петерсон
Rating: 5
Long Description: : В центре повествования — мошенник, который отсидел за свои преступления 20 лет и решил завязать. Он встречает молодую женщину, с которой хотел бы иметь совместное будущее, а тут к нему подкатывает сын бывшего подельника, который уговаривает его на последнее дело.
Description: В центре повествования — мошенник, который отсидел за свои преступления 20 лет и решил завязать
Release Date: 2012-03-03T15:00:00Z
Genre: Thriller
Artist: Дэвид Уивер
Name: Самаритянин
MediaInfo
Код:
General
Complete name: /Users/imac/HandBrake/Самаритянин.2012.x264.BDRip.1024x.m4v
Format: MPEG-4
Codec ID: M4V
File size: 1.68 GiB
Duration: 1h 33mn
Overall bit rate mode: Variable
Overall bit rate: 2 584 Kbps
Movie name: Самаритянин
Performer: Дэвид Уивер
Genre: Thriller
Recorded date: UTC 2012-03-03 15:00:00
Encoded date: UTC 2012-12-23 11:58:01
Tagged date: UTC 2012-12-23 12:00:10
Cover: Yes
desc: В центре повествования — мошенник, который отсидел за свои преступления 20 лет и решил завязать
ldes: : В центре повествования — мошенник, который отсидел за свои преступления 20 лет и решил завязать. Он встречает молодую женщину, с которой хотел бы иметь совместное будущее, а тут к нему подкатывает сын бывшего подельника, который уговаривает его на последнее дело.
stik: 9
rtng: 0
cnID: 513439441
xid: Apple:vendor_id:2012-584042
iTunEXTC: mpaa|R|400|
iTunMOVI: <?xml version="1.0" encoding="UTF-8"?> / <!DOCTYPE plist PUBLIC "-/Apple/DTD PLIST 1.0/EN" "http://www.apple.com/DTDs/PropertyList-1.0.dtd"> / <plist version="1.0"> / <dict> /<key>cast</key> /<array> /<dict> /<key>name</key> /<string> Сэмюэл Л. Джексон</string> /</dict> /<dict> /<key>name</key> /<string>Люк Кирби</string> /</dict> /<dict> /<key>name</key> /<string>Рут Негга</string> /</dict> /<dict> /<key>name</key> /<string>Том Уилкинсон</string> /</dict> /<dict> /<key>name</key> /<string>Джил Беллоуз</string> /</dict> /<dict> /<key>name</key> /<string>Аарон Пул</string> /</dict> /<dict> /<key>name</key> /<string>Том МакКэмус</string> /</dict> /<dict> /<key>name</key> /<string>Марта Барнс</string> /</dict> /<dict> /<key>name</key> /<string>Стефен Макинтайр</string> /</dict> /<dict> /<key>name</key> /<string>Алан С. Петерсон</string> /</dict> /</array> /<key>directors</key> /<array> /<dict> /<key>name</key> /<string>Дэвид Уивер</string> /</dict> /</array> /<key>producers</key> /<array> /<dict> /<key>name</key> /<string>Андрас Хамори</string> /</dict> /</array> /<key>screenwriters</key> /<array> /<dict> /<key>name</key> /<string>Элан Мэстай</string> /</dict> /<dict> /<key>name</key> /<string>Дэвид Уивер</string> /</dict> /</array> / </dict> / </plist>
Video #1
ID: 1
Format: AVC
Format/Info: Advanced Video Codec
Format profile: [email protected]
Format settings, CABAC: Yes
Format settings, ReFrames: 9 frames
Codec ID: avc1
Codec ID/Info: Advanced Video Coding
Duration: 1h 33mn
Bit rate mode: Variable
Bit rate: 2 200 Kbps
Width: 1 024 pixels
Height: 432 pixels
Display aspect ratio: 2.40:1
Frame rate mode: Variable
Frame rate: 23.976 fps
Minimum frame rate: 23.810 fps
Maximum frame rate: 24.318 fps
Color space: YUV
Chroma subsampling: 4:2:0
Bit depth: 8 bits
Scan type: Progressive
Bits/(Pixel*Frame): 0.207
Stream size: 1.43 GiB (85%)
Writing library: x264 core 120
Encoding settings: cabac=1 / ref=9 / deblock=1:0:0 / analyse=0x3:0x113 / me=umh / subme=9 / psy=1 / psy_rd=1.00:0.00 / mixed_ref=1 / me_range=32 / chroma_me=1 / trellis=1 / 8x8dct=1 / cqm=0 / deadzone=21,11 / fast_pskip=1 / chroma_qp_offset=-2 / threads=12 / sliced_threads=0 / nr=0 / decimate=1 / interlaced=0 / bluray_compat=0 / constrained_intra=0 / bframes=6 / b_pyramid=2 / b_adapt=2 / b_bias=0 / direct=1 / weightb=1 / open_gop=0 / weightp=2 / keyint=240 / keyint_min=24 / scenecut=40 / intra_refresh=0 / rc_lookahead=40 / rc=2pass / mbtree=1 / bitrate=2200 / ratetol=1.0 / qcomp=0.60 / qpmin=3 / qpmax=69 / qpstep=4 / cplxblur=20.0 / qblur=0.5 / ip_ratio=1.40 / aq=1:1.00
Language: English
Encoded date: UTC 2012-12-23 11:58:02
Tagged date: UTC 2012-12-23 11:59:02
Color primaries: BT.709-5, BT.1361, IEC 61966-2-4, SMPTE RP177
Transfer characteristics: BT.709-5, BT.1361
Matrix coefficients: BT.709-5, BT.1361, IEC 61966-2-4 709, SMPTE RP177
Video #2
ID: 7
Format: JPEG
Codec ID: jpeg
Duration: 1h 33mn
Bit rate mode: Variable
Bit rate: 370 bps
Width: 640 pixels
Height: 270 pixels
Display aspect ratio: 2.40:1
Frame rate mode: Variable
Frame rate: 0.002 fps
Minimum frame rate: 0.002 fps
Maximum frame rate: 0.005 fps
Color space: YUV
Chroma subsampling: 4:2:0
Bit depth: 8 bits
Compression mode: Lossy
Bits/(Pixel*Frame): 1.071
Stream size: 226 KiB (0%)
Language: English
Encoded date: UTC 2012-12-23 12:00:09
Tagged date: UTC 2012-12-23 12:00:10
Audio #1
ID: 2
Format: AAC
Format/Info: Advanced Audio Codec
Format profile: LC
Codec ID: 40
Duration: 1h 33mn
Bit rate mode: Variable
Bit rate: 126 Kbps
Maximum bit rate: 195 Kbps
Channel(s): 2 channels
Channel positions: Front: L R
Sampling rate: 48.0 KHz
Compression mode: Lossy
Stream size: 83.6 MiB (5%)
Language: Russian
Encoded date: UTC 2012-12-23 11:58:02
Tagged date: UTC 2012-12-23 11:59:22
Audio #2
ID: 3
Format: AAC
Format/Info: Advanced Audio Codec
Format profile: LC
Codec ID: 40
Duration: 1h 33mn
Bit rate mode: Variable
Bit rate: 126 Kbps
Maximum bit rate: 179 Kbps
Channel(s): 2 channels
Channel positions: Front: L R
Sampling rate: 48.0 KHz
Compression mode: Lossy
Stream size: 83.7 MiB (5%)
Language: Russian
Encoded date: UTC 2012-12-23 11:58:02
Tagged date: UTC 2012-12-23 11:59:42
Audio #3
ID: 4
Format: AAC
Format/Info: Advanced Audio Codec
Format profile: LC
Codec ID: 40
Duration: 1h 33mn
Bit rate mode: Variable
Bit rate: 126 Kbps
Maximum bit rate: 176 Kbps
Channel(s): 2 channels
Channel positions: Front: L R
Sampling rate: 48.0 KHz
Compression mode: Lossy
Stream size: 83.8 MiB (5%)
Language: English
Encoded date: UTC 2012-12-23 11:58:02
Tagged date: UTC 2012-12-23 12:00:02
Text #1
ID: 5
Format: Timed text
Muxing mode: sbtl
Codec ID: tx3g
Duration: 1h 29mn
Bit rate mode: Variable
Bit rate: 58 bps
Stream size: 38.4 KiB (0%)
Language: English
Encoded date: UTC 2012-12-23 11:58:02
Tagged date: UTC 2012-12-23 12:00:02
Text #2
ID: 6
Format: Apple text
Codec ID: text
Duration: 1h 33mn
Bit rate mode: Constant
Bit rate: 0 bps
Stream size: 240 Bytes (0%)
Language: English
Encoded date: UTC 2012-12-23 12:00:02
Tagged date: UTC 2012-12-23 12:00:02
Menu
00:00:00.000: Chapter 01
00:10:35.343: Chapter 02
00:20:00.115: Chapter 03
00:30:02.341: Chapter 04
00:40:00.104: Chapter 05
00:50:00.203: Chapter 06
01:00:00.093: Chapter 07
01:09:47.179: Chapter 08
01:19:28.134: Chapter 09
01:30:00.182: Chapter 10
x264 лог
Код:
x264 [info]: frame I:1105Avg QP:11.14size: 75890PSNR Mean Y:51.30 U:53.91 V:55.28 Avg:51.94 Global:51.52
x264 [info]: frame P:28615 Avg QP:13.47size: 25034PSNR Mean Y:49.90 U:53.17 V:54.96 Avg:50.47 Global:49.65
x264 [info]: frame B:104126 Avg QP:15.94  size:7050PSNR Mean Y:47.93 U:51.15 V:53.26 Avg:48.64 Global:48.25
x264 [info]: consecutive B-frames:1.8%1.6%4.3% 30.6% 16.1% 32.5% 13.0%
x264 [info]: mb II16..4: 10.9% 69.7% 19.5%
x264 [info]: mb PI16..4:2.6%8.4%2.0%P16..4: 32.2% 27.8% 18.3%0.0%0.0%skip: 8.7%
x264 [info]: mb BI16..4:0.4%0.8%0.1%B16..8: 38.2% 14.0%3.9%direct: 5.3%skip:37.3%L0:48.0% L1:42.1% BI:10.0%
x264 [info]: 8x8 transform intra:65.2% inter:66.9%
x264 [info]: coded y,uvDC,uvAC intra: 74.1% 80.6% 72.4% inter: 26.3% 31.5% 12.4%
x264 [info]: i16 v,h,dc,p: 56% 15%9% 20%
x264 [info]: i8 v,h,dc,ddl,ddr,vr,hd,vl,hu: 12%9% 13%9% 11% 12% 11% 11% 12%
x264 [info]: i4 v,h,dc,ddl,ddr,vr,hd,vl,hu: 12%9%7%9% 13% 13% 12% 11% 13%
x264 [info]: i8c dc,h,v,p: 57% 17% 16% 10%
x264 [info]: Weighted P-Frames: Y:2.0% UV:1.2%
x264 [info]: ref P L0: 43.8%6.8% 18.7%8.4%7.0%5.2%4.6%2.7%2.7%0.1%0.0%
x264 [info]: ref B L0: 62.5% 16.2%8.5%4.6%3.4%2.8%1.5%0.5%
x264 [info]: ref B L1: 89.0% 11.0%
x264 [info]: SSIM Mean Y:0.9895284 (19.800db)
x264 [info]: PSNR Mean Y:48.380 U:51.601 V:53.643 Avg:49.058 Global:48.531 kb/s:2198.64
Скриншоты



Вернуться к началу
 Профиль Отправить личное сообщение  
 
   Похожие торренты   Автор   Торрент   Размер 
В этой теме нет новых непрочитанных сообщений. Логово Монстра / Bad Samaritan [Ужасы, триллер, 2018] BDRip, Dub [iTunes]

salma3

52 | 27

1.41 ГБ

В этой теме нет новых непрочитанных сообщений. Логово Монстра / Bad Samaritan [Ужасы, триллер, 2018] BDRip-AVC, Dub [iTunes]

salma3

0 | 0

1.4 ГБ

В этой теме нет новых непрочитанных сообщений. Логово Монстра / Bad Samaritan [Ужасы, триллер, 2018] BDRip 1080p, Dub [iTunes]

salma3

0 | 0

11.03 ГБ

В этой теме нет новых непрочитанных сообщений. Коллекционер 2 / The Collection [ужасы, боевик, триллер, 2012] BDRip 720p, Dub [iPad]

salma3

0 | 0

1.73 ГБ

В этой теме нет новых непрочитанных сообщений. Логово Монстра / Bad Samaritan (2018) BDRip 720p, Dub [iTunes]

salma3

0 | 0

4.13 ГБ

В этой теме нет новых непрочитанных сообщений. Зов героев / Wei cheng jian ba [боевик, 2016] BDRip, Avo [Дольский]

salma3

216 | 64

2.17 ГБ

В этой теме нет новых непрочитанных сообщений. Родители / Parenthood [04x01-08 из 15] (Лоуренс Триллинг, Патрик Р. Норрис, Майкл Уивер) [2012, комедия, семейная драма, WEB-DLRip | ViruseProject]

Dracon

41 | 4

4.42 ГБ


Начать новую тему Ответить на тему  [ 1 сообщение ] 




Для Мосгорсуда, Роскомнадзора и рекламодателей:: mosgorsud-torrent[собачка]yandex.ru
cron