Торрент файл
скачать торрент магнет ссылка Добавлен: 11 янв 2013, 22:16
Размер: 2.39 ГБ
Сидеров: 8
Личеров: 5
Автор

СообщениеДобавлено: 11 янв 2013, 22:16 

Не в сети
Супермодератор
Аватара пользователя
Дата регистрации:
11 апр 2010, 18:10
Спасибо: 5996 / 7
Сообщения: 56684
id="p-25224744-1">Возвращение / Volver
Год выпуска: 2006
Страна: Испания, Canal+ Espana, El Deseo S.A.
Жанр: Комедия, драма, криминал, детектив
Продолжительность: 02:01:05
Перевод : Профессиональный (дублированный)
Русские субтитры: есть
Режиссёр: Педро Альмодовар/Pedro Almodóvar
В ролях: Пенелопа Крус, Кармен Маура, Лола Дуэньас, Бланка Портильо, Йохана Кобо, Чус Лампреаве, Антонио Де Ла Торре, Карлос Бланко, Мария Изабель Диаз, Нюс Санс
Описание: Современный Мадрид. Раймунда — привлекательная молодая испанка живет с безработным мужем и подрастающей красавицей-дочерью. Семье катастрофически не хватает денег и поэтому ей приходится трудиться сразу на нескольких работах. Раймунда — сильный, волевой человек, прирожденный боец, но, как всякая женщина, она невероятно ранима. С самого детства она хранит тайну…...
Доп. информация:
Исходник:Возвращение / Volver / 2006 / ДБ, СТ / Blu-Ray (1080p) (Кинозал)
Качество: BDRip
Формат: *.mp4
Видео кодек: H.264
аудио кодек: ААС
Разрешение: 1024x432
Другие параметры видео: 2500kbit/s; 23.976fps
Аудио 1: Rus 160kbit/s; 2ch; 48KHz Дублированный
Аудио 2: Spanish 160kbit/s; 2ch; 48KHz Оригинал
MediaInfo
Общее
Полное имя : C:\Handbrake\Vozvrashenie.2006.x264.BDRip.1024x.mp4.m4v
Формат : MPEG-4
Идентификатор кодека : M4V
Размер файла : 2,39 Гбайт
Продолжительность : 2 ч. 1 м.
Режим общего битрейта : Переменный
Общий поток : 2829 Кбит/сек
Название фильма : Возвращение
Исполнитель : Педро Альмодовар
Жанр : Drama
Дата записи : 2006-03-17T08:00:00Z
Дата кодирования : UTC 2012-09-27 21:34:02
Дата пометки : UTC 2012-09-27 21:50:12
Программа кодирования : MkvToMp4 [www.mkvtomp4.ru] version 0.221a
Обложка : Yes
iTunEXTC : mpaa|R|400|
iTunMOVI : <?xml version="1.0" encoding="UTF-8"?> / <!DOCTYPE plist PUBLIC "-/Apple/DTD PLIST 1.0/EN" "http://www.apple.com/DTDs/PropertyList-1.0.dtd"> / <plist version="1.0"> / <dict> / <key>cast</key> / <array> / <dict> / <key>name</key> / <string>Пенелопа Крус</string> / </dict> / <dict> / <key>name</key> / <string>Кармен Маура</string> / </dict> / <dict> / <key>name</key> / <string>Лола Дуэньас</string> / </dict> / </array> / <key>directors</key> / <array> / <dict> / <key>name</key> / <string>Педро Альмодовар</string> / </dict> / </array> / <key>producers</key> / <array> / <dict> / <key>name</key> / <string>Эстер Гарсия</string> / </dict> / <dict> / <key>name</key> / <string>Агустин Альмодовар</string> / </dict> / <dict> / <key>name</key> / <string>Тони Новелла</string> / </dict> / </array> / <key>screenwriters</key> / <array> / <dict> / <key>name</key> / <string>Педро Альмодовар</string> / </dict> / </array> / </dict> / </plist>
tven : trackId: 436174553
desc : Современный Мадрид. Раймунда — привлекательная молодая испанка живет с безработным мужем и подрастающей красавицей-дочерью
ldes : Современный Мадрид. Раймунда — привлекательная молодая испанка живет с безработным мужем и подрастающей красавицей-дочерью. Семье катастрофически не хватает денег и поэтому ей приходится трудиться сразу на нескольких работах. Раймунда — сильный, волевой человек, прирожденный боец, но, как всякая женщина, она невероятно ранима. С самого детства она хранит тайну…...
hdvd : 0
stik : 9
Видео
Идентификатор : 1
Формат : AVC
Формат/Информация : Advanced Video Codec
Профиль формата : [email protected]
Параметр CABAC формата : Да
Параметр ReFrames формата : 9 кадров
Идентификатор кодека : avc1
Идентификатор кодека/Информация : Advanced Video Coding
Продолжительность : 2 ч. 1 м.
Битрейт : 2500 Кбит/сек
Максимальный битрейт : 12,7 Мбит/сек
Ширина : 1024 пикселя
Высота : 432 пикселя
Соотношение сторон : 2,40:1
Режим частоты кадров : Постоянный
Частота кадров : 23,976 кадра/сек
Цветовое пространство : YUV
Субдискретизация насыщенности : 4:2:0
Битовая глубина : 8 бит
Тип развёртки : Прогрессивная
Бит/(Пиксели*Кадры) : 0.236
Размер потока : 2,11 Гбайт (88%)
Библиотека кодирования : x264 core 120
Настройки программы : cabac=1 / ref=9 / deblock=1:0:0 / analyse=0x3:0x113 / me=umh / subme=9 / psy=1 / psy_rd=1.00:0.00 / mixed_ref=1 / me_range=32 / chroma_me=1 / trellis=1 / 8x8dct=1 / cqm=0 / deadzone=21,11 / fast_pskip=1 / chroma_qp_offset=-2 / threads=12 / sliced_threads=0 / nr=0 / decimate=1 / interlaced=0 / bluray_compat=0 / constrained_intra=0 / bframes=6 / b_pyramid=2 / b_adapt=2 / b_bias=0 / direct=1 / weightb=1 / open_gop=0 / weightp=2 / keyint=240 / keyint_min=24 / scenecut=40 / intra_refresh=0 / rc_lookahead=40 / rc=2pass / mbtree=1 / bitrate=2500 / ratetol=1.0 / qcomp=0.60 / qpmin=3 / qpmax=69 / qpstep=4 / cplxblur=20.0 / qblur=0.5 / ip_ratio=1.40 / aq=1:1.00
Язык : English
Дата кодирования : UTC 2012-09-27 21:34:02
Дата пометки : UTC 2012-09-27 21:36:31
Основные цвета : BT.709
Характеристики трансфера : BT.709
Коэффициенты матрицы : BT.709
Аудио #1
Идентификатор : 2
Формат : AAC
Формат/Информация : Advanced Audio Codec
Профиль формата : LC
Идентификатор кодека : 40
Продолжительность : 1 ч. 59 м.
Вид битрейта : Переменный
Битрейт : 160 Кбит/сек
Максимальный битрейт : 353 Кбит/сек
Каналы : 2 канала
Расположение каналов : Front: L R
Частота : 48,0 КГц
Метод сжатия : С потерями
Размер потока : 137 Мбайт (6%)
Язык : Russian
Дата кодирования : UTC 2012-09-27 21:35:31
Дата пометки : UTC 2012-09-27 21:36:31
Аудио #2
Идентификатор : 3
Формат : AAC
Формат/Информация : Advanced Audio Codec
Профиль формата : LC
Идентификатор кодека : 40
Продолжительность : 2 ч. 1 м.
Вид битрейта : Переменный
Битрейт : 160 Кбит/сек
Максимальный битрейт : 303 Кбит/сек
Каналы : 2 канала
Расположение каналов : Front: L R
Частота : 48,0 КГц
Метод сжатия : С потерями
Размер потока : 139 Мбайт (6%)
Язык : Spanish
Дата кодирования : UTC 2012-09-27 21:36:03
Дата пометки : UTC 2012-09-27 21:36:31
Текст #1
Идентификатор : 4
Формат : Timed text
Режим смешивания : sbtl
Идентификатор кодека : tx3g
Продолжительность : 2 ч. 0 м.
Вид битрейта : Переменный
Битрейт : 102 бит/сек
Размер потока : 89,6 Кбайт (0%)
Язык : Russian
Дата кодирования : UTC 2012-09-27 21:36:31
Дата пометки : UTC 2012-09-27 21:36:31
Текст #2
Идентификатор : 5
Формат : Apple text
Идентификатор кодека : text
Продолжительность : 2 ч. 1 м.
Вид битрейта : Переменный
Битрейт : 0 бит/сек
Размер потока : 423 байт (0%)
Дата кодирования : UTC 2012-09-27 21:38:59
Дата пометки : UTC 2012-09-27 21:38:59
iTunes meta tag
Media Type: Movie
iPad:vendor_id:2011- 102185
contentID- 102185
trackId:436174553
ScreenWriters: Педро Альмодовар
Producers: Эстер Гарсия, Агустин Альмодовар, Тони Новелла
Director: Педро Альмодовар
Cast: Пенелопа Крус, Кармен Маура, Лола Дуэньас
Rating: R
Long Description: Современный Мадрид. Раймунда — привлекательная молодая испанка живет с безработным мужем и подрастающей красавицей-дочерью. Семье катастрофически не хватает денег и поэтому ей приходится трудиться сразу на нескольких работах. Раймунда — сильный, волевой человек, прирожденный боец, но, как всякая женщина, она невероятно ранима. С самого детства она хранит тайну…...
Description: Современный Мадрид. Раймунда — привлекательная молодая испанка живет с безработным мужем и подрастающей красавицей-дочерью
Release Date: 2006-03-17T08:00:00Z
Genre: Drama
Artist: Педро Альмодовар
Name: Возвращение
x264 log
x264 [info]: frame I:1117 Avg QP:14.70 size: 84104 PSNR Mean Y:48.25 U:49.88 V:51.17 Avg:48.87 Global:48.37
x264 [info]: frame P:37350 Avg QP:17.30 size: 30845 PSNR Mean Y:46.65 U:48.33 V:49.88 Avg:47.29 Global:45.87
x264 [info]: frame B:135720 Avg QP:20.34 size: 7540 PSNR Mean Y:43.96 U:46.40 V:48.29 Avg:44.78 Global:44.38
x264 [info]: consecutive B-frames: 1.5% 1.8% 5.2% 29.1% 16.6% 32.4% 13.3%
x264 [info]: mb I I16..4: 8.7% 69.7% 21.6%
x264 [info]: mb P I16..4: 0.8% 7.2% 2.1% P16..4: 33.7% 29.6% 19.7% 0.0% 0.0% skip: 7.0%
x264 [info]: mb B I16..4: 0.1% 0.6% 0.2% B16..8: 42.9% 12.2% 3.7% direct: 5.0% skip:35.4% L0:43.7% L1:42.6% BI:13.7%
x264 [info]: 8x8 transform intra:71.3% inter:64.6%
x264 [info]: coded y,uvDC,uvAC intra: 93.0% 93.6% 80.8% inter: 32.0% 33.6% 9.1%
x264 [info]: i16 v,h,dc,p: 46% 15% 7% 32%
x264 [info]: i8 v,h,dc,ddl,ddr,vr,hd,vl,hu: 12% 7% 3% 10% 15% 15% 13% 13% 11%
x264 [info]: i4 v,h,dc,ddl,ddr,vr,hd,vl,hu: 12% 7% 2% 9% 15% 16% 13% 13% 12%
x264 [info]: i8c dc,h,v,p: 43% 17% 23% 17%
x264 [info]: Weighted P-Frames: Y:4.8% UV:1.2%
x264 [info]: ref P L0: 42.0% 13.5% 16.9% 6.7% 6.3% 4.4% 4.5% 2.5% 2.8% 0.3% 0.0%
x264 [info]: ref B L0: 70.7% 12.3% 6.2% 3.5% 2.8% 2.6% 1.4% 0.5%
x264 [info]: ref B L1: 91.6% 8.4%
x264 [info]: SSIM Mean Y:0.9810473 (17.223db)
x264 [info]: PSNR Mean Y:44.568 U:46.836 V:48.649 Avg:45.346 Global:44.679 kb/s:2498.85
Скриншоты



Вернуться к началу
 Профиль Отправить личное сообщение  
 
   Похожие торренты   Автор   Торрент   Размер 
В этой теме нет новых непрочитанных сообщений. Забирая жизни / Taking Lives [триллер, криминал, детектив, 2004] BDRip 720p, Dub [Режиссерская версия] [iPad]

salma3

0 | 0

1.64 ГБ

В этой теме нет новых непрочитанных сообщений. Бугимен / Boogeyman [ужасы, триллер, драма, детектив, 2005] BDRip 720p, Dub [iPad]

salma3

0 | 0

2.12 ГБ

В этой теме нет новых непрочитанных сообщений. Восставший / Risen [боевик, драма, детектив, приключения, 2016] BDRip 720p, Dub [iPad]

salma3

29 | 9

1.91 ГБ

В этой теме нет новых непрочитанных сообщений. Прибытие / Arrival [фантастика, триллер, драма, детектив, 2016] BDRip 720p, Dub [iPad] [Лицензия]

salma3

197 | 32

1.17 ГБ

В этой теме нет новых непрочитанных сообщений. Расплата / The Accountant (Боевик, триллер, драма, криминал, 2016) BDRip | iPad | iTunes

marya111

294 | 40

2.2 ГБ

В этой теме нет новых непрочитанных сообщений. Девушка в поезде / The Girl on the Train [триллер, драма, детектив, 2016] BDRip 720p, Dub [iPad] [Лицензия]

salma3

35 | 6

2.41 ГБ

В этой теме нет новых непрочитанных сообщений. Любой ценой / Hell or High Water [боевик, драма, криминал, вестерн, 2016] BDRip 720p, Dub [iPad] [Лицензия]

salma3

65 | 3

2.31 ГБ


Начать новую тему Ответить на тему  [ 1 сообщение ] 




Для Мосгорсуда, Роскомнадзора и рекламодателей:: mosgorsud-torrent[собачка]yandex.ru
cron