Торрент файл
скачать торрент магнет ссылка Добавлен: 11 янв 2013, 22:16
Размер: 3.23 ГБ
Сидеров: 8
Личеров: 6
Автор

СообщениеДобавлено: 11 янв 2013, 22:16 

Не в сети
Супермодератор
Аватара пользователя
Дата регистрации:
11 апр 2010, 18:10
Спасибо: 5995 / 7
Сообщения: 56685
id="p-25224744-1">
Законопослушный гражданин / Law Abiding Citizen«Как остановить убийцу, если он уже за решеткой?»


Страна: США
Жанр: триллер, драма, криминал
Год выпуска: 2009

Перевод #1: Профессиональный (полное дублирование)
Перевод #2: Профессиональный (многоголосый закадровый)
Перевод #3: Авторский (одноголосый закадровый) Сербин

Оригинальная аудиодорожка: Английский
Cубтитры: Русские, Английские
Режиссер: Ф. Гэри Грей / F. Gary Gray

В ролях: Джейми Фокс (Nick Rice), Джерард Батлер (Clyde Shelton), Колм Мини (Detective Dunnigan), Брюс МакГилл (Jonas Cantrell), Лесли Бибб (Sarah Lowell), Майкл Ирби (Detective Garza), Грегори Итцин (Warden Iger), Реджина Холл (Kelly Rice), Эмиральд Янг (Denise Rice, (as Emerald Angel Young)), Кристиан Столте (Clarence Darby), Энни Корли (Judge Laura Burch), Ричард Портноу (Bill Reynolds)
Дублёры: Дмитрий Завадский (Nick Rice), Евгений Пашин (Detective Dunnigan), Олег Лепинец (Warden Iger), Андрей Саминин (Bray)

Описание: Добропорядочный житель Филадельфии Клайд Шелтон теряет семью в результате бандитского нападения. Но когда преступники оказались в руках правосудия, выяснилось, что юридической Системе удобнее пойти на сделку с одним из бандитов, чтобы дать высшую меру другому.
Помощник окружного прокурора Ник Райс идет на эту сделку, вопреки протестам возмущенного Шелтона, свято верящего в безукоризненность Закона. Но его права были попраны. И тогда спустя годы безвестный мститель начинает творить собственную расправу над убийцами. Ник Райс достаточно быстро находит его. Это Клайд Шелтон. Райсу кажется, что ему нетрудно добиться признания от раздавленного семейной трагедией Клайда.
Каково же изумление всех работников Системы, когда они обнаруживают, что даже помещенный в тюрьму, этот человек способен на самую жестокую и изощренную месть. Более того, они оказались совершенно бессильны перед гениальной игрой и смертоносными ударами изолированного в одиночке Шелтона! Законопослушный гражданин начал беспощадную войну против всех них. И дело вовсе не в мести
Рейтинг
imdb.com: 7.20 (76 455)
MPAA: R - Лицам до 17 лет обязательно присутствие взрослого
Качество видео: BDRip - Исходник BD Remux
Формат видео: m4v
Видео кодек: H.264
Аудио кодек: AAC
Видео: 1280х528 (2.40:1), 23,976 fps, H.264 3250 kbps avg, 0.201 bit/pixel
Аудио #1: Russian, 48,0 kHz, AAC LC, 2 ch, 170 kbps avg | DUB
Аудио #2: Russian, 48,0 kHz, AAC LC, 2 ch, 144 kbps avg | MVO
Аудио #3: Russian, 48,0 kHz, AAC LC, 2 ch, 144 kbps avg | AVO
Аудио #4: English, 48,0 kHz, AAC LC, 2 ch, 136 kbps avg | Original
MediaInfo
Код:
Код:
General
Complete name                            : D:\iPad\Law Abiding Citizen\Law.Abiding.Citizen.2009.BDRip.m4v
Format                                   : MPEG-4
Codec ID                                 : M4V
File size                                : 3.23 GiB
Duration                                 : 1h 58mn
Overall bit rate mode                    : Variable
Overall bit rate                         : 3 918 Kbps
Movie name                               : Законопослушный гражданин
Performer                                : Ф. Гэри Грей
Recorded date                            : UTC 2009-09-23 07:00:00
Encoded date                             : UTC 2011-12-01 17:38:50
Tagged date                              : UTC 2011-12-02 18:03:16
Writing application                      : MkvToMp4 [www.mkvtomp4.ru] version 0.218Test2
Cover                                    : Yes
desc                                     : Добропорядочный житель Филадельфии Клайд Шелтон теряет семью в результате бандитского нападения. Но когда преступники оказались в руках правосудия, выяснилось, что юридической Системе удобнее пойти на сделку с одним из бандитов, чтобы дать высшую мер
ldes                                     : Добропорядочный житель Филадельфии Клайд Шелтон теряет семью в результате бандитского нападения. Но когда преступники оказались в руках правосудия, выяснилось, что юридической Системе удобнее пойти на сделку с одним из бандитов, чтобы дать высшую меру другому.  Помощник окружного прокурора Ник Райс идет на эту сделку, вопреки протестам возмущенного Шелтона, свято верящего в безукоризненность Закона. Но его права были попраны… И тогда спустя годы безвестный мститель начинает творить собственную расправу над убийцами. Ник Райс достаточно быстро находит его. Это… Клайд Шелтон. Райсу кажется, что ему нетрудно добиться признания от раздавленного семейной трагедией Клайда.  Каково же изумление всех работников Системы, когда они обнаруживают, что даже помещенный в тюрьму, этот человек способен на самую жестокую и изощренную месть. Более того, они оказались совершенно бессильны перед гениальной игрой и смертоносными ударами изолированного в одиночке Шелтона! Законопослушный гражданин начал беспощадную войну против всех них. И дело вовсе не в мести…
hdvd                                     : 1
stik                                     : 9
cnID                                     : 337981862
xid                                      : RG-Apple:vendor_id:2009-406408
iTunEXTC                                 : mpaa|R|400|
iTunMOVI                                 : <?xml version="1.0" encoding="UTF-8"?> / <!DOCTYPE plist PUBLIC "-/Apple/DTD PLIST 1.0/EN" "http:/www.apple.com/DTDs/PropertyList-1.0.dtd"> / <plist version="1.0"> /  <dict> /   <key>cast</key> /   <array> /    <dict> /     <key>name</key> /     <string>Джейми Фокс</string> /    </dict> /    <dict> /     <key>name</key> /     <string>Джерард Батлер</string> /    </dict> /    <dict> /     <key>name</key> /     <string>Колм Мини</string> /    </dict> /    <dict> /     <key>name</key> /     <string>Брюс МакГилл</string> /    </dict> /    <dict> /     <key>name</key> /     <string>Лесли Бибб</string> /    </dict> /    <dict> /     <key>name</key> /     <string>Майкл Ирби</string> /    </dict> /    <dict> /     <key>name</key> /     <string>Грегори Итцин</string> /    </dict> /    <dict> /     <key>name</key> /     <string>Реджина Холл</string> /    </dict> /    <dict> /     <key>name</key> /     <string>Кристиан Столте</string> /    </dict> /   </array> /   <key>directors</key> /   <array> /    <dict> /     <key>name</key> /     <string>Ф. Гэри Грей</string> /    </dict> /   </array> /   <key>producers</key> /   <array> /    <dict> /     <key>name</key> /     <string>Джерард Батлер</string> /    </dict> /    <dict> /     <key>name</key> /     <string>Курт Уиммер</string> /    </dict> /    <dict> /     <key>name</key> /     <string>Лукас Фостер</string> /    </dict> /   </array> /   <key>screenwriters</key> /   <array> /    <dict> /     <key>name</key> /     <string>Курт Уиммер</string> /    </dict> /   </array> /  </dict> / </plist>
Video
ID                                       : 1
Format                                   : AVC
Format/Info                              : Advanced Video Codec
Format profile                           : [email protected]
Format settings, CABAC                   : Yes
Format settings, ReFrames                : 9 frames
Codec ID                                 : avc1
Codec ID/Info                            : Advanced Video Coding
Duration                                 : 1h 58mn
Bit rate                                 : 3 250 Kbps
Maximum bit rate                         : 14.8 Mbps
Width                                    : 1 280 pixels
Height                                   : 528 pixels
Display aspect ratio                     : 2.40:1
Frame rate mode                          : Variable
Frame rate                               : 23.976 fps
Minimum frame rate                       : 7.992 fps
Maximum frame rate                       : 24.015 fps
Color space                              : YUV
Chroma subsampling                       : 4:2:0
Bit depth                                : 8 bits
Scan type                                : Progressive
Bits/(Pixel*Frame)                       : 0.201
Stream size                              : 2.68 GiB (83%)
Writing library                          : x264 core 112
Encoding settings                        : cabac=1 / ref=9 / deblock=1:0:0 / analyse=0x3:0x113 / me=umh / subme=9 / psy=1 / psy_rd=1.00:0.00 / mixed_ref=1 / me_range=24 / chroma_me=1 / trellis=1 / 8x8dct=1 / cqm=0 / deadzone=21,11 / fast_pskip=1 / chroma_qp_offset=-2 / threads=12 / sliced_threads=0 / nr=0 / decimate=1 / interlaced=0 / constrained_intra=0 / bframes=6 / b_pyramid=2 / b_adapt=1 / b_bias=0 / direct=1 / weightb=1 / open_gop=0 / weightp=2 / keyint=240 / keyint_min=23 / scenecut=40 / intra_refresh=0 / rc_lookahead=40 / rc=2pass / mbtree=1 / bitrate=3250 / ratetol=1.0 / qcomp=0.60 / qpmin=3 / qpmax=51 / qpstep=4 / cplxblur=20.0 / qblur=0.5 / ip_ratio=1.40 / aq=1:1.00
Language                                 : English
Encoded date                             : UTC 2011-12-01 17:38:50
Tagged date                              : UTC 2011-12-01 17:51:23
Color primaries                          : BT.709-5, BT.1361, IEC 61966-2-4, SMPTE RP177
Transfer characteristics                 : BT.709-5, BT.1361
Matrix coefficients                      : BT.709-5, BT.1361, IEC 61966-2-4 709, SMPTE RP177
Audio #1
ID                                       : 2
Format                                   : AAC
Format/Info                              : Advanced Audio Codec
Format profile                           : LC
Codec ID                                 : 40
Duration                                 : 1h 58mn
Bit rate mode                            : Variable
Bit rate                                 : 173 Kbps
Maximum bit rate                         : 239 Kbps
Channel(s)                               : 2 channels
Channel positions                        : Front: L R
Sampling rate                            : 48.0 KHz
Compression mode                         : Lossy
Stream size                              : 146 MiB (4%)
Title                                    : DUB
Language                                 : Russian
Encoded date                             : UTC 2011-12-01 17:40:37
Tagged date                              : UTC 2011-12-01 17:51:23
Audio #2
ID                                       : 3
Format                                   : AAC
Format/Info                              : Advanced Audio Codec
Format profile                           : LC
Codec ID                                 : 40
Duration                                 : 1h 58mn
Bit rate mode                            : Variable
Bit rate                                 : 159 Kbps
Maximum bit rate                         : 237 Kbps
Channel(s)                               : 2 channels
Channel positions                        : Front: L R
Sampling rate                            : 48.0 KHz
Compression mode                         : Lossy
Stream size                              : 135 MiB (4%)
Title                                    : MVO
Language                                 : Russian
Encoded date                             : UTC 2011-12-01 17:45:42
Tagged date                              : UTC 2011-12-01 17:51:23
Audio #3
ID                                       : 4
Format                                   : AAC
Format/Info                              : Advanced Audio Codec
Format profile                           : LC
Codec ID                                 : 40
Duration                                 : 1h 58mn
Bit rate mode                            : Variable
Bit rate                                 : 158 Kbps
Maximum bit rate                         : 239 Kbps
Channel(s)                               : 2 channels
Channel positions                        : Front: L R
Sampling rate                            : 48.0 KHz
Compression mode                         : Lossy
Stream size                              : 134 MiB (4%)
Title                                    : AVO (Serbin)
Language                                 : Russian
Encoded date                             : UTC 2011-12-01 17:50:09
Tagged date                              : UTC 2011-12-01 17:51:23
Audio #4
ID                                       : 5
Format                                   : AAC
Format/Info                              : Advanced Audio Codec
Format profile                           : LC
Codec ID                                 : 40
Duration                                 : 1h 58mn
Bit rate mode                            : Variable
Bit rate                                 : 159 Kbps
Maximum bit rate                         : 215 Kbps
Channel(s)                               : 2 channels
Channel positions                        : Front: L R
Sampling rate                            : 48.0 KHz
Compression mode                         : Lossy
Stream size                              : 134 MiB (4%)
Title                                    : Original
Language                                 : English
Encoded date                             : UTC 2011-12-01 17:50:53
Tagged date                              : UTC 2011-12-01 17:51:23
Text #1
ID                                       : 6
Format                                   : Timed text
Muxing mode                              : sbtl
Codec ID                                 : tx3g
Duration                                 : 1h 47mn
Bit rate mode                            : Variable
Bit rate                                 : 97 bps
Stream size                              : 76.3 KiB (0%)
Language                                 : Russian
Encoded date                             : UTC 2011-12-01 17:51:22
Tagged date                              : UTC 2011-12-01 17:51:23
Text #2
ID                                       : 7
Format                                   : Timed text
Muxing mode                              : sbtl
Codec ID                                 : tx3g
Duration                                 : 1h 54mn
Bit rate mode                            : Variable
Bit rate                                 : 66 bps
Stream size                              : 55.2 KiB (0%)
Language                                 : English
Encoded date                             : UTC 2011-12-01 17:51:23
Tagged date                              : UTC 2011-12-01 17:51:23

x264 log
Код:
Код:
x264 [info]: frame I:2082  Avg QP:15.12  size: 81796  PSNR Mean Y:47.79 U:51.71 V:51.46 Avg:48.61 Global:47.94
x264 [info]: frame P:95221 Avg QP:18.23  size: 21669  PSNR Mean Y:45.34 U:50.13 V:49.68 Avg:46.34 Global:45.73
x264 [info]: frame B:72592 Avg QP:20.07  size:  8858  PSNR Mean Y:43.99 U:49.63 V:49.06 Avg:45.11 Global:44.55
x264 [info]: consecutive B-frames: 29.0% 39.2%  8.3% 13.2%  9.7%  0.3%  0.2%
x264 [info]: mb I  I16..4: 11.2% 76.2% 12.6%
x264 [info]: mb P  I16..4:  0.6%  3.4%  0.4%  P16..4: 41.0% 24.5% 14.7%  0.0%  0.0%    skip:15.4%
x264 [info]: mb B  I16..4:  0.0%  0.4%  0.0%  B16..8: 47.9%  9.4%  2.4%  direct: 2.8%  skip:37.0%  L0:46.7% L1:48.5% BI: 4.8%
x264 [info]: 8x8 transform intra:76.9% inter:67.0%
x264 [info]: coded y,uvDC,uvAC intra: 86.3% 70.0% 43.5% inter: 32.2% 20.2% 2.0%
x264 [info]: i16 v,h,dc,p: 53% 15% 12% 20%
x264 [info]: i8 v,h,dc,ddl,ddr,vr,hd,vl,hu:  7%  7%  6% 11% 16% 14% 15% 11% 13%
x264 [info]: i4 v,h,dc,ddl,ddr,vr,hd,vl,hu:  7%  7%  3% 10% 16% 15% 16% 12% 14%
x264 [info]: i8c dc,h,v,p: 43% 26% 18% 13%
x264 [info]: Weighted P-Frames: Y:1.7% UV:1.0%
x264 [info]: ref P L0: 48.5%  8.1% 17.5%  7.0%  5.8%  4.4%  3.9%  2.1%  1.9%  0.9%  0.0%
x264 [info]: ref B L0: 63.1% 15.1%  8.5%  4.5%  3.4%  3.0%  2.1%  0.3%
x264 [info]: ref B L1: 94.0%  6.0%
x264 [info]: SSIM Mean Y:0.9735798 (15.781db)
x264 [info]: PSNR Mean Y:44.791 U:49.932 V:49.438 Avg:45.844 Global:45.203 kb/s:3247.69

Скриншоты

Скриншоты с iPad




Вернуться к началу
 Профиль Отправить личное сообщение  
 
   Похожие торренты   Автор   Торрент   Размер 
В этой теме нет новых непрочитанных сообщений. Законопослушный гражданин / Law Abiding Citizen [триллер, драма, криминал, 2009] BDRemux 1080p, Dub [Unrated]

salma3

10 | 3

37.63 ГБ

В этой теме нет новых непрочитанных сообщений. Почетный гражданин / The Distinguished Citizen / El ciudadano ilustre [Драма, комедия, 2016] BDRip 720p, Dub [iTunes]

salma3

0 | 0

5.7 ГБ

В этой теме нет новых непрочитанных сообщений. Дориан Грей / Dorian Gray [фэнтези, триллер, драма, 2009] HDRip, Dub

salma3

229 | 19

1.45 ГБ

В этой теме нет новых непрочитанных сообщений. Шарлотта Грей / Charlotte Gray [Драма, мелодрама, военный, триллер, 2001] WEB-DL 720p, Mvo+Sub

salma3

95 | 20

4.21 ГБ

В этой теме нет новых непрочитанных сообщений. Форсаж 8 / The Fate of the Furious [2017] ( Ф. Гэри Грей) [Боевик, триллер, криминал, приключения ] [BDRip 1080p] [DD5.1] [Dub Rus, Englis + Subs Rus , ENG] [ iTunes]

Враг Нароода

1 | 1

25.28 ГБ

В этой теме нет новых непрочитанных сообщений. Голос улиц / Straight Outta Compton (Ф. Гэри Грей) [драма, биография, музыка, 2015] BDRip 720p, Dub [iTunes | Theatrical Cut]

Dracon

5167 | 283

3.7 ГБ

В этой теме нет новых непрочитанных сообщений. Почетный гражданин / The Distinguished Citizen / El ciudadano ilustre [Драма, комедия, 2016] BDRip 1080p, Mvo [iTunes]

salma3

0 | 0

12.2 ГБ


Начать новую тему Ответить на тему  [ 1 сообщение ] 




Для Мосгорсуда, Роскомнадзора и рекламодателей:: mosgorsud-torrent[собачка]yandex.ru
cron