Торрент файл
скачать торрент магнет ссылка Добавлен: 11 янв 2013, 22:16
Размер: 1.84 ГБ
Сидеров: 23
Личеров: 9
Автор

СообщениеДобавлено: 11 янв 2013, 22:16 

Не в сети
Супермодератор
Аватара пользователя
Дата регистрации:
11 апр 2010, 18:10
Спасибо: 5995 / 7
Сообщения: 56684
id="p-25224744-1">Голая правда / The Ugly Truth«Мужские ценности против Женских идеалов»

Страна: США
Жанр: мелодрама, комедия
Год выпуска: 2009
Продолжительность: 01:35:57
Перевод: Профессиональный (полное дублирование)
Cубтитры: есть
Оригинальная аудиодорожка: английский
Режиссер: Роберт Лукетич
Сценарий: Карен МакКалла Луц, Керстен Смит, Николь Истмэн
Продюсер: Кимберли Ди Бонавентура, Стивен Ретер, Том Розенберг
В ролях: Кэтрин Хайгл / Katherine Heigl, Джерард Батлер / Gerard Butler, Бри Тернер / Bree Turner, Эрик Винтер / Eric Winter, Ник Сирси / Nick Searcy, Джесси Д. Гойнс / Jesse D. Goins, Шерил Хайнс / Cheryl Hines, Джон Майкл Хиггинс / John Michael Higgins, Ной Мэтьюз / Noah Matthews, Бонни Соммервиль / Bonnie Somerville...
Описание: Он — восходящая звезда нового телешоу, и его жизненное кредо — «секс, наркотики и рок-н-ролл», он совсем не признает равенство полов, политкорректность и так далее… В общем, настоящий мачо.
Качество: BDRip
Исходник: BDRip 720p
Формат: m4v
Видео кодек: H.264
Аудио кодек: AAC
Видео: 1280x528, 2426 Kbps, 23,976 fps
Аудио RUS: 48 kHz, AAC, 2ch, 168 kbps - Профессиональный (полное дублирование)
Аудио ENG: 48 kHz, AAC, 2ch, 150 kbps - Оригинал
MediaInfo
Код:
Код:
Полное имя : E:\The Ugly Truth.m4v
Формат : MPEG-4
Идентификатор кодека : M4V
Размер файла : 1,84 Гбайт
Продолжительность : 1 ч. 35 м.
Общий поток : 2751 Кбит/сек
Название фильма : Голая правда
Исполнитель : Robert Luketic
Жанр : Comedy
Дата записи : UTC 2009-12-08 08:00:00
Дата кодирования : UTC 2011-12-11 09:28:44
Дата пометки : UTC 2011-12-12 09:32:47
Обложка : Yes
desc : Он — восходящая звезда нового телешоу, и его жизненное кредо — «секс, наркотики и рок-н-ролл», он совсем не признает равенство полов, политкорректность и так далее… В общем, настоящий мачо.
ldes : Он — восходящая звезда нового телешоу, и его жизненное кредо — «секс, наркотики и рок-н-ролл», он совсем не признает равенство полов, политкорректность и так далее… В общем, настоящий мачо.
hdvd : 1
stik : 0
cnID : 326037925
xid : iPad:vendor_id:2009-398239
iTunEXTC : mpaa|R|400|
iTunMOVI : / / / / cast / / / name / Кэтрин Хейгл / / / name / Жерар Батлер / / / name / Бри Тернер / / / name / Эрик Винтер / / / name / Ник Сирси / / / name / Jesse D. Goins / / / name / Шерил Хайнс / / / name / Джон Майкл Хиггинс / / / name / Ной Мэтьюз / / / name / Бонни Соммервиль / / / name / Джон Сломан / / / name / Ивет Николь Браун / / / name / Натан Кордри / / / name / Аллен Мальдонадо / / / name / Стив Литтл / / / name / Дэн Каллахан / / / name / Тесс Паркер / / / name / Ариэль Ванденберг / / / name / Кевин Коннолли / / / name / Рокко Деспирито / / / name / Валенте Родригез / / / directors / / / name / Роберт Лукетич / / / producers / / / name / Кимберли Ди Бонавентура / / / name / Стивен Ретер / / / name / Том Розенберг / / / screenwriters / / / name / Карен МакКалла Луц / / / name / Керстен Смит / / / name / Николь Истмэн / / / /
Видео
Идентификатор : 1
Формат : AVC
Формат/Информация : Advanced Video Codec
Профиль формата : [email protected]
Параметр CABAC формата : Да
Параметр ReFrames формата : 9 кадры
Идентификатор кодека : avc1
Идентификатор кодека/Информация : Advanced Video Coding
Продолжительность : 1 ч. 35 м.
Вид битрейта : Переменный
Битрейт : 2426 Кбит/сек
Максимальный битрейт : 11,5 Мбит/сек
Ширина : 1280 пикс.
Высота : 528 пикс.
Соотношение сторон : 2,40:1
Режим частоты кадров : Постоянный
Частота кадров : 23,976 кадр/сек
Цветовое пространство : YUV
Подвыборка цветности : 4:2:0
Битовая глубина : 8 бит
Тип развёртки : Прогрессивная
Бит/(Пиксели*Кадры) : 0.150
Размер потока : 1,63 Гбайт (88%)
Заголовок : AVC; 1280x528 (2.424); 2325 Kbps; 23,976 fps; 0,144 bpp
Библиотека кодирования : x264 core 79 r1342 e8501ef
Настройки программы : cabac=1 / ref=9 / deblock=1:-2:-1 / analyse=0x3:0x113 / me=umh / subme=10 / psy=1 / psy_rd=1.0:0.0 / mixed_ref=1 / me_range=32 / chroma_me=1 / trellis=2 / 8x8dct=1 / cqm=0 / deadzone=21,11 / chroma_qp_offset=-2 / threads=6 / nr=0 / decimate=1 / mbaff=0 / constrained_intra=0 / bframes=7 / b_pyramid=2 / b_adapt=2 / b_bias=0 / direct=1 / wpredb=1 / wpredp=2 / keyint=250 / keyint_min=25 / scenecut=45 / rc=crf / mbtree=0 / crf=19.4 / qcomp=0.60 / qpmin=10 / qpmax=51 / qpstep=4 / ip_ratio=1.40 / pb_ratio=1.30 / aq=1:1.00
Язык : English
Дата кодирования : UTC 2011-12-11 09:28:44
Дата пометки : UTC 2011-12-11 09:30:36
Коэффициенты матрицы : BT.709-5, BT.1361, IEC 61966-2-4 709, SMPTE RP177
Аудио #1
Идентификатор : 2
Формат : AAC
Формат/Информация : Advanced Audio Codec
Профиль формата : LC
Идентификатор кодека : 40
Продолжительность : 1 ч. 35 м.
Вид битрейта : Переменный
Битрейт : 168 Кбит/сек
Максимальный битрейт : 232 Кбит/сек
Канал(ы) : 2 канала(ов)
Расположение каналов : Front: L R
Частота : 48,0 КГц
Метод сжатия : С потерями
Размер потока : 116 Мбайт (6%)
Заголовок : Russian stereo
Язык : Russian
Дата кодирования : UTC 2011-12-11 09:30:16
Дата пометки : UTC 2011-12-11 09:30:36
Аудио #2
Идентификатор : 3
Формат : AAC
Формат/Информация : Advanced Audio Codec
Профиль формата : LC
Идентификатор кодека : 40
Продолжительность : 1 ч. 35 м.
Вид битрейта : Переменный
Битрейт : 150 Кбит/сек
Максимальный битрейт : 217 Кбит/сек
Канал(ы) : 2 канала(ов)
Расположение каналов : Front: L R
Частота : 48,0 КГц
Метод сжатия : С потерями
Размер потока : 103 Мбайт (5%)
Заголовок : English stereo
Язык : English
Дата кодирования : UTC 2011-12-11 09:30:26
Дата пометки : UTC 2011-12-11 09:30:36
Текст #1
Идентификатор : 4
Формат : Timed text
Режим смешивания : sbtl
Идентификатор кодека : tx3g
Продолжительность : 1 ч. 31 м.
Вид битрейта : Переменный
Битрейт : 135 бит/сек
Размер потока : 90,4 Кбайт (0%)
Заголовок : Russian
Язык : Russian
Дата кодирования : UTC 2011-12-11 09:30:36
Дата пометки : UTC 2011-12-11 09:30:36
Текст #2
Идентификатор : 5
Формат : Timed text
Режим смешивания : sbtl
Идентификатор кодека : tx3g
Продолжительность : 1 ч. 31 м.
Вид битрейта : Переменный
Битрейт : 78 бит/сек
Размер потока : 52,0 Кбайт (0%)
Заголовок : English
Язык : English
Дата кодирования : UTC 2011-12-11 09:30:36
Дата пометки : UTC 2011-12-11 09:30:36

Скриншоты
Для просмотра данного релиза на компьютере с ОС Windows рекомендуется использовать VLC media player



Вернуться к началу
 Профиль Отправить личное сообщение  
 
   Похожие торренты   Автор   Торрент   Размер 
В этой теме нет новых непрочитанных сообщений. Голая правда / The Ugly Truth [мелодрама, комедия, 2009] WEB-DLRip, Dub [Open Matte]

salma3

54 | 14

1.45 ГБ

В этой теме нет новых непрочитанных сообщений. Голая правда / The Ugly Truth [мелодрама, комедия, 2009] WEB-DLRip-AVC, Dub [Open Matte]

salma3

25 | 3

2.18 ГБ

В этой теме нет новых непрочитанных сообщений. Правда о кошках и собаках / The Truth About Cats & Dogs [мелодрама, комедия, 1996] BDRip 720p, Mvo+Sub

salma3

30 | 9

4.36 ГБ

В этой теме нет новых непрочитанных сообщений. Бриджит Джонс 3 / Bridget Jones's Baby [мелодрама, комедия, 2016] BDRip 720p, Dub [iPad] [Лицензия]

salma3

45 | 15

2.4 ГБ

В этой теме нет новых непрочитанных сообщений. Союзники / Allied (Роберт Земекис / Robert Zemeckis) [2016г., боевик, триллер, драма, мелодрама, военный, WEB-DLRip] MVO

Alfredovich

0 | 0

1.46 ГБ

В этой теме нет новых непрочитанных сообщений. Ужасная правда / The Awful Truth [мелодрама, комедия, 1937] WEB-DL 720p, Dvo

salma3

0 | 0

2.88 ГБ

В этой теме нет новых непрочитанных сообщений. Коллекционер / The Collector [ужасы, триллер, 2009] BDRip 720p, Dub [iPad]

salma3

0 | 0

1.9 ГБ


Начать новую тему Ответить на тему  [ 1 сообщение ] 




Для Мосгорсуда, Роскомнадзора и рекламодателей:: mosgorsud-torrent[собачка]yandex.ru
cron