Торрент файл
скачать торрент магнет ссылка Добавлен: 11 янв 2013, 22:15
Размер: 2.38 ГБ
Сидеров: 1
Личеров: 2
Автор

СообщениеДобавлено: 11 янв 2013, 22:15 

Не в сети
Супермодератор
Аватара пользователя
Дата регистрации:
11 апр 2010, 18:10
Спасибо: 5996 / 7
Сообщения: 56684
id="p-25224744-1">Доказательство жизни / Proof of life

Год выпуска: 2000
Страна: США
Жанр: боевик, триллер, драма
Продолжительность: 02:12:14
Перевод: Профессиональный (полное дублирование)
Русские субтитры: есть

Режиссер: Тэйлор Хэкфорд / Taylor Hackford
В ролях: Мег Райан, Расселл Кроу, Дэвид Морс, Памела Рид, Дэвид Карузо, Энтони Хилд, Стэнли Андерсон, Готтфрид Джон, Алун Армстронг, Майкл Китчен, Марго Мартиндэйл, Марио Эрнесто Санчес, Пьетро Сибилле, Викки Эрнандес, Норма Мартинес, Диего Трухильо, Карлос Бланшар, Рауль Родригес

Описание: Терри Торн сумел выкупить заложника Пьера Ленуа на территории Чечни, утерев нос федералам, которые настаивали на том, чтобы самостоятельно осуществить выкуп. Терри — парень не простой; владеет всеми видами оружия, знает несколько языков, является хорошим переговорщиком и психологом.

Качество: DVDRip
Формат: m4v
Видео кодек: H.264
Аудио кодек: AAC
Видео: [email protected], 2214Kbps, 23,976 fps
Аудио RUS: 48 kHz, AAC, 2ch, 180 kbps - Дубляж
Аудио ENG: 48 kHz, AAC, 2ch, 178 kbps - Оригинал
MediaInfo
Код:
Код:
Полное имя : F:\Proof of Life.m4v
Формат : MPEG-4
Идентификатор кодека : M4V
Размер файла : 2,38 Гбайт
Продолжительность : 2 ч. 12 м.
Общий поток : 2573 Кбит/сек
Название фильма : Proof of Life
Исполнитель : Taylor Hackford
Жанр : Drama
Дата записи : 2000-12-08T08:00:00Z
Дата кодирования : UTC 2011-10-27 05:58:24
Дата пометки : UTC 2011-10-28 06:05:27
Обложка : Yes
soar : Taylor Hackford
desc : Терри Торн сумел выкупить заложника Пьера Ленуа на территории Чечни, утерев нос федералам, которые настаивали на том, чтобы самостоятельно осуществить выкуп.
ldes : Терри Торн сумел выкупить заложника Пьера Ленуа на территории Чечни, утерев нос федералам, которые настаивали на том, чтобы самостоятельно осуществить выкуп. Терри — парень не простой; владеет всеми видами оружия, знает несколько языков, является хорошим переговорщиком и психологом.
hdvd : 0
cnID : 425988652
xid : iPad:vendor_id:2000-791
iTunEXTC : mpaa|R|400|
iTunMOVI : / / / / cast / / / name / Мег Райан / / / name / Расселл Кроу / / / name / Дэвид Морс / / / name / Памела Рид / / / name / Дэвид Карузо / / / name / Энтони Хилд / / / name / Стэнли Андерсон / / / name / Готтфрид Джон / / / name / Алун Армстронг / / / name / Майкл Китчен / / / name / Марго Мартиндэйл / / / name / Марио Эрнесто Санчес / / / name / Пьетро Сибилле / / / name / Викки Эрнандес / / / name / Норма Мартинес / / / name / Диего Трухильо / / / name / Карлос Бланшар / / / name / Рауль Родригес / / / directors / / / name / Тейлор Хэкфорд / / / producers / / / name / Тони Гилрой / / / name / Тейлор Хэкфорд / / / name / Чарльз Малвехилл / / / screenwriters / / / name / Тони Гилрой / / / name / Уильям Прошно / / / name / Томас Харгров / / / /
Видео
Идентификатор : 1
Формат : AVC
Формат/Информация : Advanced Video Codec
Профиль формата : [email protected]
Параметр CABAC формата : Да
Параметр ReFrames формата : 10 кадры
Идентификатор кодека : avc1
Идентификатор кодека/Информация : Advanced Video Coding
Продолжительность : 2 ч. 12 м.
Вид битрейта : Переменный
Битрейт : 2214 Кбит/сек
Максимальный битрейт : 11,3 Мбит/сек
Ширина : 720 пикс.
Высота : 432 пикс.
Соотношение сторон : 2,35:1
Режим частоты кадров : Постоянный
Частота кадров : 25,000 кадр/сек
Цветовое пространство : YUV
Подвыборка цветности : 4:2:0
Битовая глубина : 8 бит
Тип развёртки : Прогрессивная
Бит/(Пиксели*Кадры) : 0.285
Размер потока : 2,04 Гбайт (86%)
Библиотека кодирования : x264 core 79 r1342kMod e8501ef
Настройки программы : cabac=1 / ref=10 / deblock=1:-2:-1 / analyse=0x3:0x113 / me=tesa / subme=10 / psy=1 / psy_rd=1.0:0.4 / mixed_ref=1 / me_range=32 / chroma_me=1 / trellis=2 / 8x8dct=1 / cqm=0 / deadzone=21,11 / chroma_qp_offset=-4 / threads=6 / nr=0 / decimate=0 / mbaff=0 / constrained_intra=0 / bframes=8 / b_pyramid=0 / b_adapt=2 / b_bias=0 / direct=3 / wpredb=1 / wpredp=2 / keyint=250 / keyint_min=25 / scenecut=40 / rc_lookahead=60 / rc=2pass / mbtree=1 / bitrate=2214 / ratetol=1.0 / qcomp=0.60 / qpmin=10 / qpmax=51 / qpstep=4 / cplxblur=20.0 / qblur=0.5 / vbv_maxrate=50000 / vbv_bufsize=50000 / ip_ratio=1.40 / aq=1:1.00
Язык : English
Дата кодирования : UTC 2011-10-27 05:58:24
Дата пометки : UTC 2011-10-27 06:01:32
Аудио #1
Идентификатор : 2
Формат : AAC
Формат/Информация : Advanced Audio Codec
Профиль формата : LC
Идентификатор кодека : 40
Продолжительность : 2 ч. 10 м.
Вид битрейта : Переменный
Битрейт : 180 Кбит/сек
Максимальный битрейт : 226 Кбит/сек
Канал(ы) : 2 канала(ов)
Расположение каналов : Front: L R
Частота : 48,0 КГц
Метод сжатия : С потерями
Размер потока : 167 Мбайт (7%)
Заголовок : Russian stereo
Язык : Russian
Дата кодирования : UTC 2011-10-27 06:00:55
Дата пометки : UTC 2011-10-27 06:01:32
Аудио #2
Идентификатор : 3
Формат : AAC
Формат/Информация : Advanced Audio Codec
Профиль формата : LC
Идентификатор кодека : 40
Продолжительность : 2 ч. 10 м.
Вид битрейта : Переменный
Битрейт : 178 Кбит/сек
Максимальный битрейт : 222 Кбит/сек
Канал(ы) : 2 канала(ов)
Расположение каналов : Front: L R
Частота : 48,0 КГц
Метод сжатия : С потерями
Размер потока : 166 Мбайт (7%)
Заголовок : English stereo
Язык : English
Дата кодирования : UTC 2011-10-27 06:01:04
Дата пометки : UTC 2011-10-27 06:01:32
Текст #1
Идентификатор : 4
Формат : Timed text
Режим смешивания : sbtl
Идентификатор кодека : tx3g
Продолжительность : 2 ч. 9 м.
Вид битрейта : Переменный
Битрейт : 98 бит/сек
Размер потока : 93,3 Кбайт (0%)
Язык : Russian
Дата кодирования : UTC 2011-10-27 06:01:31
Дата пометки : UTC 2011-10-27 06:01:32
Текст #2
Идентификатор : 5
Формат : Timed text
Режим смешивания : sbtl
Идентификатор кодека : tx3g
Продолжительность : 2 ч. 9 м.
Вид битрейта : Переменный
Битрейт : 64 бит/сек
Размер потока : 60,8 Кбайт (0%)
Язык : English
Дата кодирования : UTC 2011-10-27 06:01:32
Дата пометки : UTC 2011-10-27 06:01:32

Скриншоты



Вернуться к началу
 Профиль Отправить личное сообщение  
 
   Похожие торренты   Автор   Торрент   Размер 
В этой теме нет новых непрочитанных сообщений. Доказательство жизни / Proof of life [боевик, триллер, драма, 2000] WEB-DL 720p, Dub

salma3

72 | 29

5.8 ГБ

В этой теме нет новых непрочитанных сообщений. Доказательство жизни / Proof of Life [боевик, триллер, драма, 2000] WEB-DL 1080p, Dub [Open Matte]

salma3

10 | 7

11.63 ГБ

В этой теме нет новых непрочитанных сообщений. Доказательство смерти / Death Proof [боевик, триллер, криминал, 2007] HDRip-AVC, Dub

salma3

17 | 0

745.92 МБ

В этой теме нет новых непрочитанных сообщений. Доказательство / Proof [драма, детектив, 2005] BDRip, Dub

salma3

13 | 3

1.45 ГБ

В этой теме нет новых непрочитанных сообщений. Доказательство / Proof [драма, 1991] BDRip 1080p, Dvo

salma3

32 | 6

8.68 ГБ

В этой теме нет новых непрочитанных сообщений. Один раз в жизни / Once in the Life [драма, криминал, 2000] WEB-DLRip, Dvo

salma3

9 | 6

1.45 ГБ

В этой теме нет новых непрочитанных сообщений. Мгновения жизни / The Life Before Her Eyes [триллер, драма, детектив, 2007] BDRemux 1080p, Mvo

salma3

29 | 23

14.59 ГБ


Начать новую тему Ответить на тему  [ 1 сообщение ] 




Для Мосгорсуда, Роскомнадзора и рекламодателей:: mosgorsud-torrent[собачка]yandex.ru
cron