Торрент файл
скачать торрент магнет ссылка Добавлен: 11 янв 2013, 22:15
Размер: 3.58 ГБ
Сидеров: 5
Личеров: 5
Автор

СообщениеДобавлено: 11 янв 2013, 22:15 

Не в сети
Супермодератор
Аватара пользователя
Дата регистрации:
11 апр 2010, 18:10
Спасибо: 5996 / 7
Сообщения: 56684
id="p-25224744-1">
Человек, который изменил всё / Moneyball«А что в жизни сделал ты?»


Страна: США
Жанр: драма, биография, спорт
Год выпуска: 2011

Перевод: Профессиональный (полное дублирование)
Оригинальная аудиодорожка: Английский
Cубтитры: Русские (надписи и пр.), Английские
Режиссер: Беннетт Миллер / Bennett Miller

В ролях: Брэд Питт (Billy Beane), Джона Хилл (Peter Brand), Филип Сеймур Хоффман (Art Howe), Робин Райт (Sharon), Крис Прэтт (Scott Hatteberg), Стефен Бишоп (David Justice), Брент Дженнингс (Ron Washington), Кен Медлок (Grady Fuson), Тэмми Бланчард (Elizabeth Hatteberg), Джек МакГи (John Poloni), Вито Руджинис (Pittaro), Ник Сирси (Matt Keough)
Дублёры: Всеволод Кузнецов (Billy Beane), Диомид Виноградов (Peter Brand), Александр Новиков (Art Howe), Елена Ивасишина (Sharon), Дмитрий Полонский (Scott Hatteberg), Лиза Мартиросова (Casey Beane), Олег Форостенко (Scout Artie), Дмитрий Курта (Eric Chavez)

Описание: Фильм по книге Майкла M. Льюиса, изданной в 2003 году, об Оклендской бейсбольной команде и ее генеральном менеджере, Билли Бине. Его цель - создать конкурентоспособную бейсбольную команду, несмотря на финансовые трудности.
Рейтинг
imdb.com: 7.80 (38 443)
MPAA: PG-13 - Детям до 13 лет просмотр не желателен
Качество видео: BDRip - Исходник BD Remux
Формат видео: m4v
Видео кодек: H.264
Аудио кодек: AAC
Видео: 1280х688 (1.86:1), 23,976 fps, H.264 3500 kbps avg, 0.166 bit/pixel
Аудио #1: Russian, 48,0 kHz, AAC LC, 2 ch, 161 kbps avg | DUB
Аудио #2: English, 48,0 kHz, AAC LC, 2 ch, 174 kbps avg | Original
MediaInfo
Код:
Код:
General
Complete name                            : D:\NEW\Moneyball\Moneyball.2011.BDRip.m4v
Format                                   : MPEG-4
Codec ID                                 : M4V
File size                                : 3.58 GiB
Duration                                 : 2h 13mn
Overall bit rate mode                    : Variable
Overall bit rate                         : 3 846 Kbps
Movie name                               : Человек, который изменил всё
Performer                                : Беннетт Миллер
Genre                                    : драма, биография, спорт
Recorded date                            : UTC 2011-09-09 07:00:00
Encoded date                             : UTC 2012-01-16 13:52:44
Tagged date                              : UTC 2012-01-17 14:05:51
Writing application                      : MkvToMp4 [www.mkvtomp4.ru] version 0.218Test3
Cover                                    : Yes
desc                                     : Фильм по книге Майкла M. Льюиса, изданной в 2003 году, об Оклендской бейсбольной команде и ее генеральном менеджере, Билли Бине.
ldes                                     : Фильм по книге Майкла M. Льюиса, изданной в 2003 году, об Оклендской бейсбольной команде и ее генеральном менеджере, Билли Бине. Его цель — создать конкурентоспособную бейсбольную команду, несмотря на финансовые трудности.
hdvd                                     : 1
stik                                     : 9
cnID                                     : 480245702
xid                                      : iPad:vendor_id:2011-432791
iTunEXTC                                 : mpaa|PG-13|300|
iTunMOVI                                 : <?xml version="1.0" encoding="UTF-8"?> / <!DOCTYPE plist PUBLIC "-/Apple/DTD PLIST 1.0/EN" "http:/www.apple.com/DTDs/PropertyList-1.0.dtd"> / <plist version="1.0"> /  <dict> /   <key>cast</key> /   <array> /    <dict> /     <key>name</key> /     <string>Брэд Питт</string> /    </dict> /    <dict> /     <key>name</key> /     <string>Джона Хилл</string> /    </dict> /    <dict> /     <key>name</key> /     <string>Филип Сеймур Хоффман</string> /    </dict> /    <dict> /     <key>name</key> /     <string>Робин Райт</string> /    </dict> /    <dict> /     <key>name</key> /     <string>Крис Прэтт</string> /    </dict> /    <dict> /     <key>name</key> /     <string>Стефен Бишоп</string> /    </dict> /    <dict> /     <key>name</key> /     <string>Брент Дженнингс</string> /    </dict> /    <dict> /     <key>name</key> /     <string>Кен Медлок</string> /    </dict> /    <dict> /     <key>name</key> /     <string>Тэмми Бланчард</string> /    </dict> /    <dict> /     <key>name</key> /     <string>Джек МакГи</string> /    </dict> /   </array> /   <key>directors</key> /   <array> /    <dict> /     <key>name</key> /     <string>Беннетт Миллер</string> /    </dict> /   </array> /   <key>producers</key> /   <array> /    <dict> /     <key>name</key> /     <string>Майкл Де Лука</string> /    </dict> /    <dict> /     <key>name</key> /     <string>Рэйчел Хоровиц</string> /    </dict> /    <dict> /     <key>name</key> /     <string>Брэд Питт</string> /    </dict> /   </array> /   <key>screenwriters</key> /   <array> /    <dict> /     <key>name</key> /     <string>Стивен Зеллиан</string> /    </dict> /    <dict> /     <key>name</key> /     <string>Аарон Соркин</string> /    </dict> /    <dict> /     <key>name</key> /     <string>Стэн Червин</string> /    </dict> /   </array> /  </dict> / </plist>
Video
ID                                       : 1
Format                                   : AVC
Format/Info                              : Advanced Video Codec
Format profile                           : [email protected]
Format settings, CABAC                   : Yes
Format settings, ReFrames                : 10 frames
Codec ID                                 : avc1
Codec ID/Info                            : Advanced Video Coding
Duration                                 : 2h 13mn
Bit rate                                 : 3 500 Kbps
Maximum bit rate                         : 36.5 Mbps
Width                                    : 1 280 pixels
Height                                   : 688 pixels
Display aspect ratio                     : 1.860
Frame rate mode                          : Variable
Frame rate                               : 23.976 fps
Minimum frame rate                       : 23.969 fps
Maximum frame rate                       : 24.038 fps
Color space                              : YUV
Chroma subsampling                       : 4:2:0
Bit depth                                : 8 bits
Scan type                                : Progressive
Bits/(Pixel*Frame)                       : 0.166
Stream size                              : 3.26 GiB (91%)
Writing library                          : x264 core 112
Encoding settings                        : cabac=1 / ref=10 / deblock=1:-3:-1 / analyse=0x3:0x113 / me=umh / subme=9 / psy=1 / psy_rd=1.20:0.20 / mixed_ref=1 / me_range=32 / chroma_me=1 / trellis=2 / 8x8dct=1 / cqm=0 / deadzone=21,11 / fast_pskip=1 / chroma_qp_offset=-3 / threads=12 / sliced_threads=0 / nr=0 / decimate=0 / interlaced=0 / constrained_intra=0 / bframes=8 / b_pyramid=2 / b_adapt=1 / b_bias=0 / direct=1 / weightb=1 / open_gop=0 / weightp=2 / keyint=240 / keyint_min=23 / scenecut=40 / intra_refresh=0 / rc_lookahead=40 / rc=2pass / mbtree=1 / bitrate=3500 / ratetol=1.0 / qcomp=0.60 / qpmin=3 / qpmax=51 / qpstep=4 / cplxblur=20.0 / qblur=0.5 / ip_ratio=1.40 / aq=1:1.30
Language                                 : English
Encoded date                             : UTC 2012-01-16 13:52:44
Tagged date                              : UTC 2012-01-16 13:59:05
Color primaries                          : BT.709-5, BT.1361, IEC 61966-2-4, SMPTE RP177
Transfer characteristics                 : BT.709-5, BT.1361
Matrix coefficients                      : BT.709-5, BT.1361, IEC 61966-2-4 709, SMPTE RP177
Audio #1
ID                                       : 2
Format                                   : AAC
Format/Info                              : Advanced Audio Codec
Format profile                           : LC
Codec ID                                 : 40
Duration                                 : 2h 13mn
Bit rate mode                            : Variable
Bit rate                                 : 161 Kbps
Maximum bit rate                         : 229 Kbps
Channel(s)                               : 2 channels
Channel positions                        : Front: L R
Sampling rate                            : 48.0 KHz
Compression mode                         : Lossy
Stream size                              : 153 MiB (4%)
Title                                    : DUB
Language                                 : Russian
Encoded date                             : UTC 2012-01-16 13:58:30
Tagged date                              : UTC 2012-01-16 13:59:05
Audio #2
ID                                       : 3
Format                                   : AAC
Format/Info                              : Advanced Audio Codec
Format profile                           : LC
Codec ID                                 : 40
Duration                                 : 2h 13mn
Bit rate mode                            : Variable
Bit rate                                 : 174 Kbps
Maximum bit rate                         : 237 Kbps
Channel(s)                               : 2 channels
Channel positions                        : Front: L R
Sampling rate                            : 48.0 KHz
Compression mode                         : Lossy
Stream size                              : 165 MiB (5%)
Title                                    : Original
Language                                 : English
Encoded date                             : UTC 2012-01-16 13:58:47
Tagged date                              : UTC 2012-01-16 13:59:05
Text #1
ID                                       : 4
Format                                   : Timed text
Muxing mode                              : sbtl
Codec ID                                 : tx3g
Duration                                 : 2h 7mn
Bit rate mode                            : Variable
Bit rate                                 : 2 bps
Stream size                              : 1.49 KiB (0%)
Language                                 : Russian
Encoded date                             : UTC 2012-01-16 13:59:05
Tagged date                              : UTC 2012-01-16 13:59:05
Text #2
ID                                       : 5
Format                                   : Timed text
Muxing mode                              : sbtl
Codec ID                                 : tx3g
Duration                                 : 2h 10mn
Bit rate mode                            : Variable
Bit rate                                 : 80 bps
Stream size                              : 76.5 KiB (0%)
Language                                 : English
Encoded date                             : UTC 2012-01-16 13:59:05
Tagged date                              : UTC 2012-01-16 13:59:05

x264 log
Код:
Код:
x264 [info]: frame I:2037  Avg QP:19.17  size:106081  PSNR Mean Y:44.31 U:49.08 V:50.62 Avg:45.44 Global:44.42
x264 [info]: frame P:97644 Avg QP:21.81  size: 25691  PSNR Mean Y:41.63 U:47.99 V:49.70 Avg:42.95 Global:42.17
x264 [info]: frame B:92007 Avg QP:23.27  size:  8383  PSNR Mean Y:41.42 U:48.25 V:50.66 Avg:42.74 Global:41.70
x264 [info]: consecutive B-frames: 21.3% 40.5% 13.7% 14.0%  7.2%  1.4%  0.3%  0.2%  1.4%
x264 [info]: mb I  I16..4: 18.2% 69.4% 12.4%
x264 [info]: mb P  I16..4:  1.0%  4.7%  0.2%  P16..4: 44.7% 19.5% 13.5%  0.0%  0.0%    skip:16.4%
x264 [info]: mb B  I16..4:  0.0%  0.5%  0.0%  B16..8: 43.1%  4.8%  1.2%  direct: 3.5%  skip:46.8%  L0:45.0% L1:50.9% BI: 4.1%
x264 [info]: 8x8 transform intra:78.4% inter:57.3%
x264 [info]: coded y,uvDC,uvAC intra: 85.4% 66.1% 34.1% inter: 24.5% 20.4% 6.2%
x264 [info]: i16 v,h,dc,p: 37% 18% 17% 27%
x264 [info]: i8 v,h,dc,ddl,ddr,vr,hd,vl,hu:  6%  8% 10% 11% 14% 13% 14% 11% 13%
x264 [info]: i4 v,h,dc,ddl,ddr,vr,hd,vl,hu:  9% 10%  5% 10% 14% 13% 14% 11% 14%
x264 [info]: i8c dc,h,v,p: 46% 25% 16% 13%
x264 [info]: Weighted P-Frames: Y:1.5% UV:0.8%
x264 [info]: ref P L0: 44.0%  9.2% 16.8%  7.2%  6.0%  4.7%  4.5%  2.3%  2.3%  2.1%  1.0%  0.0%
x264 [info]: ref B L0: 56.9% 15.7%  9.6%  5.0%  4.0%  3.6%  3.1%  1.7%  0.4%
x264 [info]: ref B L1: 93.5%  6.5%
x264 [info]: SSIM Mean Y:0.9558110 (13.547db)
x264 [info]: PSNR Mean Y:41.562 U:48.128 V:50.171 Avg:42.881 Global:41.957 kb/s:3498.14

Скриншоты

Скриншоты с iPad




Вернуться к началу
 Профиль Отправить личное сообщение  
 
   Похожие торренты   Автор   Торрент   Размер 
В этой теме нет новых непрочитанных сообщений. Человек, который изменил всё / Moneyball [драма, биография, спорт, 2011] BDRip 720p, Dub

salma3

0 | 2

4.34 ГБ

В этой теме нет новых непрочитанных сообщений. Человек, который изменил всё / Moneyball [драма, биография, спорт, 2011] BDRip-AVC, Dub

salma3

0 | 0

1.45 ГБ

В этой теме нет новых непрочитанных сообщений. Человек, который изменил всё / Moneyball [драма, биография, спорт, 2011] BDRip, Dub

salma3

0 | 0

2.18 ГБ

В этой теме нет новых непрочитанных сообщений. Человек, который изменил всё / Moneyball [драма, биография, спорт, 2011] BDRip 1080p, 2Dub

salma3

3 | 1

11.54 ГБ

В этой теме нет новых непрочитанных сообщений. МакКейб и миссис Миллер / McCabe and mrs Miller [драма, вестерн, 1971] BDRip, Mvo+Dvo

salma3

15 | 23

2.19 ГБ

В этой теме нет новых непрочитанных сообщений. Чудо на Гудзоне / Sully [драма, биография, 2016] BDRip 720p, Dub [iPad] [Лицензия]

salma3

0 | 0

1.79 ГБ

В этой теме нет новых непрочитанных сообщений. Храброе сердце / Braveheart [драма, военный, биография, история, 1995] BDRip 720p, Dub [iPad]

salma3

10 | 1

4.92 ГБ


Начать новую тему Ответить на тему  [ 1 сообщение ] 




Для Мосгорсуда, Роскомнадзора и рекламодателей:: mosgorsud-torrent[собачка]yandex.ru
cron