Торрент файл
скачать торрент магнет ссылка Добавлен: 11 янв 2013, 22:15
Размер: 1.63 ГБ
Сидеров: 0
Личеров: 3
Автор

СообщениеДобавлено: 11 янв 2013, 22:15 

Не в сети
Супермодератор
Аватара пользователя
Дата регистрации:
11 апр 2010, 18:10
Спасибо: 5996 / 7
Сообщения: 56684
id="p-25224744-1">Война Чарли Уилсона
Charlie Wilson's War
Общая информация
Год выпуска: 2007
Страна: США, Германия
Жанр: драма, комедия, биография
Продолжительность: 01:41:48



Создатели и актеры
Режиссеры: Майк Николс / Mike Nichols
В ролях: Том Хэнкс, Эми Адамс, Джулия Робертс, Филип Сеймур Хоффман, Терри Боузман, Брайан Маркинсон, Джад Тайлор, Хилари Сальваторе, Сийя Баттен, Кирби Митчел
Сценарий: Аарон Соркин, Джордж Крайл
Продюссеры: Мэри Бэйли, Селия Д. Костас, Гари Гоэцман



Описание
Драма, развёрнутая вокруг жуликоватого конгрессмена от штата Техас, чья страсть к выпивке и девушкам почти загубила его карьеру. Но он умудряется переживать скандал за скандалом, более того, он становится свидетелем крупнейшей и самой успешной операции ЦРУ в истории, его попытки финансировать повстанцев в Афганистане приводят к не вполне ожидаемым последствиям.


Технические параметры
Исходник: BD Remux
Формат: MP4 (контейнер m4v)
Перевод:
Русский (двухголосый, закадровый)
Русский (многоголосый, закадровый)
Русский (авторский, одноголосый Сербин)
Субтитры: Русские, Английские
Навигация по главам (с изображениями)
iTunes Meta Tags
Код:
Код:
Media Type: Movie HD 720p
XID: ATV:vendor_id:2007-195231
Content ID: 278172404
Copyright: © 2007 Universal Studios and MP Munich Pape Filmproductions GmbbH & Co.
ScreenWriters: Аарон Соркин, Джордж Крайл
Producers: Мэри Бэйли, Селия Д. Костас, Гари Гоэцман
Director: Майк Николс
Cast: Том Хэнкс, Эми Адамс, Джулия Робертс, Филип Сеймур Хоффман, Терри Боузман, Брайан Маркинсон, Джад Тайлор, Хилари Сальваторе, Сийя Баттен, Кирби Митчел
Rating: R
Long Description: Драма, развёрнутая вокруг жуликоватого конгрессмена от штата Техас, чья страсть к выпивке и девушкам почти загубила его карьеру. Но он умудряется переживать скандал за скандалом, более того, он становится свидетелем крупнейшей и самой успешной операции ЦРУ в истории, его попытки финансировать повстанцев в Афганистане приводят к не вполне ожидаемым последствиям.
Description: Драма, развёрнутая вокруг жуликоватого конгрессмена от штата Техас, чья страсть к выпивке и девушкам почти загубила его карьеру. Но он умудряется переживать скандал за скандалом, более того, он становится свидетелем крупнейшей и самой успешной операции ЦРУ
Release Date: 2007-12-10T07:00:00Z
Genre: Drama
Artist: Mike Nichols
Name: Charlie Wilson's War

Видео: H.264, [email protected] (1,85:1), 23.976 fps, ~1750 kbps, анаморф
Аудио 1: Русский (AAC Stereo) DVO
Аудио 1: Русский (AAC Stereo) MVO
Аудио 1: Русский (AAC Stereo) AVO Сербин
Аудио 2: Английский (AAC Stereo)
Скриншоты SD
Media Info
Код:
Код:
Общее
Полное имя                               : D:\Media\ATV\Charlie Wilson's War\Charlie Wilson's War.m4v
Формат                                   : MPEG-4
Профиль формата                          : Base Media / Version 2
Идентификатор кодека                     : mp42
Размер файла                             : 1,63 Гбайт
Продолжительность                        : 1 ч. 41 м.
Режим общего битрейта                    : Переменный
Общий поток                              : 2291 Кбит/сек
Название фильма                          : Charlie Wilson's War
Исполнитель                              : Mike Nichols
Жанр                                     : Drama
Дата записи                              : UTC 2007-12-10 07:00:00
Дата кодирования                         : UTC 2012-10-06 15:55:26
Дата пометки                             : UTC 2012-10-06 19:22:03
Правообладатель                          : © 2007 Universal Studios and MP Munich Pape Filmproductions GmbbH & Co.
Обложка                                  : Yes
desc                                     : Драма, развёрнутая вокруг жуликоватого конгрессмена от штата Техас, чья страсть к выпивке и девушкам почти загубила его карьеру. Но он умудряется переживать скандал за скандалом, более того, он становится свидетелем крупнейшей и самой успешной операции ЦРУ
ldes                                     : Драма, развёрнутая вокруг жуликоватого конгрессмена от штата Техас, чья страсть к выпивке и девушкам почти загубила его карьеру. Но он умудряется переживать скандал за скандалом, более того, он становится свидетелем крупнейшей и самой успешной операции ЦРУ в истории, его попытки финансировать повстанцев в Афганистане приводят к не вполне ожидаемым последствиям.
stik                                     : 9
rtng                                     : 0
cnID                                     : 278172404
xid                                      : ATV:vendor_id:2007-195231
iTunEXTC                                 : mpaa|R|400|
iTunMOVI                                 : <?xml version="1.0" encoding="UTF-8"?> / <!DOCTYPE plist PUBLIC "-/Apple/DTD PLIST 1.0/EN" "http:/www.apple.com/DTDs/PropertyList-1.0.dtd"> / <plist version="1.0"> / <dict> /  <key>cast</key> /  <array> /   <dict> /    <key>name</key> /    <string>Том Хэнкс</string> /   </dict> /   <dict> /    <key>name</key> /    <string>Эми Адамс</string> /   </dict> /   <dict> /    <key>name</key> /    <string>Джулия Робертс</string> /   </dict> /   <dict> /    <key>name</key> /    <string>Филип Сеймур Хоффман</string> /   </dict> /   <dict> /    <key>name</key> /    <string>Терри Боузман</string> /   </dict> /   <dict> /    <key>name</key> /    <string>Брайан Маркинсон</string> /   </dict> /   <dict> /    <key>name</key> /    <string>Джад Тайлор</string> /   </dict> /   <dict> /    <key>name</key> /    <string>Хилари Сальваторе</string> /   </dict> /   <dict> /    <key>name</key> /    <string>Сийя Баттен</string> /   </dict> /   <dict> /    <key>name</key> /    <string>Кирби Митчел</string> /   </dict> /  </array> /  <key>directors</key> /  <array> /   <dict> /    <key>name</key> /    <string>Майк Николс</string> /   </dict> /  </array> /  <key>producers</key> /  <array> /   <dict> /    <key>name</key> /    <string>Мэри Бэйли</string> /   </dict> /   <dict> /    <key>name</key> /    <string>Селия Д. Костас</string> /   </dict> /   <dict> /    <key>name</key> /    <string>Гари Гоэцман</string> /   </dict> /  </array> /  <key>screenwriters</key> /  <array> /   <dict> /    <key>name</key> /    <string>Аарон Соркин</string> /   </dict> /   <dict> /    <key>name</key> /    <string>Джордж Крайл</string> /   </dict> /  </array> / </dict> / </plist>
Видео #1
Идентификатор                            : 1
Формат                                   : AVC
Формат/Информация                        : Advanced Video Codec
Профиль формата                          : [email protected]
Параметр CABAC формата                   : Нет
Параметр ReFrames формата                : 2 кадра
Идентификатор кодека                     : avc1
Идентификатор кодека/Информация          : Advanced Video Coding
Продолжительность                        : 1 ч. 41 м.
Вид битрейта                             : Переменный
Битрейт                                  : 1750 Кбит/сек
Ширина                                   : 640 пикселей
Высота                                   : 460 пикселей
Соотношение сторон                       : 1,85:1
Режим частоты кадров                     : Переменный
Частота кадров                           : 23,976 кадра/сек
Минимальная частота кадров               : 23,810 кадра/сек
Максимальная частота кадров              : 24,390 кадра/сек
Цветовое пространство                    : YUV
Субдискретизация насыщенности            : 4:2:0
Битовая глубина                          : 8 бит
Тип развёртки                            : Прогрессивная
Бит/(Пиксели*Кадры)                      : 0.248
Размер потока                            : 1,24 Гбайт (76%)
Библиотека кодирования                   : x264 core 120
Настройки программы                      : cabac=0 / ref=2 / deblock=1:-3:-3 / analyse=0x1:0x111 / me=umh / subme=6 / psy=1 / psy_rd=0.00:0.00 / mixed_ref=1 / me_range=24 / chroma_me=1 / trellis=0 / 8x8dct=0 / cqm=0 / deadzone=21,11 / fast_pskip=0 / chroma_qp_offset=0 / threads=12 / sliced_threads=0 / nr=0 / decimate=1 / interlaced=0 / bluray_compat=0 / constrained_intra=0 / bframes=0 / weightp=0 / keyint=240 / keyint_min=24 / scenecut=40 / intra_refresh=0 / rc_lookahead=40 / rc=2pass / mbtree=1 / bitrate=1750 / ratetol=1.0 / qcomp=0.60 / qpmin=3 / qpmax=69 / qpstep=4 / cplxblur=20.0 / qblur=0.5 / ip_ratio=1.40 / aq=1:1.00
Язык                                     : English
Дата кодирования                         : UTC 2012-10-06 15:55:26
Дата пометки                             : UTC 2012-10-06 17:13:57
Основные цвета                           : BT.709-5, BT.1361, IEC 61966-2-4, SMPTE RP177
Характеристики трансфера                 : BT.709-5, BT.1361
Коэффициенты матрицы                     : BT.709-5, BT.1361, IEC 61966-2-4 709, SMPTE RP177
Видео #2
Идентификатор                            : 9
Формат                                   : JPEG
Идентификатор кодека                     : jpeg
Продолжительность                        : 1 ч. 41 м.
Вид битрейта                             : Переменный
Битрейт                                  : 1197 бит/сек
Ширина                                   : 640 пикселей
Высота                                   : 345 пикселей
Соотношение сторон                       : 1,85:1
Режим частоты кадров                     : Переменный
Частота кадров                           : 0,003 кадр/сек
Минимальная частота кадров               : 0,002 кадр/сек
Максимальная частота кадров              : 0,006 кадр/сек
Цветовое пространство                    : YUV
Субдискретизация насыщенности            : 4:2:0
Битовая глубина                          : 8 бит
Метод сжатия                             : С потерями
Бит/(Пиксели*Кадры)                      : 1.807
Размер потока                            : 974 Кбайт (0%)
Язык                                     : English
Дата кодирования                         : UTC 2012-10-06 19:21:59
Дата пометки                             : UTC 2012-10-06 19:22:03
Аудио #1
Идентификатор                            : 2
Формат                                   : AAC
Формат/Информация                        : Advanced Audio Codec
Профиль формата                          : LC
Идентификатор кодека                     : 40
Продолжительность                        : 1 ч. 41 м.
Вид битрейта                             : Переменный
Битрейт                                  : 132 Кбит/сек
Максимальный битрейт                     : 216 Кбит/сек
Каналы                                   : 2 канала
Расположение каналов                     : Front: L R
Частота                                  : 48,0 КГц
Метод сжатия                             : С потерями
Размер потока                            : 96,5 Мбайт (6%)
Язык                                     : Russian
Дата кодирования                         : UTC 2012-10-06 19:15:52
Дата пометки                             : UTC 2012-10-06 19:17:12
Аудио #2
Идентификатор                            : 3
Формат                                   : AAC
Формат/Информация                        : Advanced Audio Codec
Профиль формата                          : LC
Идентификатор кодека                     : 40
Продолжительность                        : 1 ч. 41 м.
Вид битрейта                             : Переменный
Битрейт                                  : 132 Кбит/сек
Максимальный битрейт                     : 247 Кбит/сек
Каналы                                   : 2 канала
Расположение каналов                     : Front: L R
Частота                                  : 48,0 КГц
Метод сжатия                             : С потерями
Размер потока                            : 96,4 Мбайт (6%)
Язык                                     : Russian
Дата кодирования                         : UTC 2012-10-06 19:15:53
Дата пометки                             : UTC 2012-10-06 19:18:28
Аудио #3
Идентификатор                            : 4
Формат                                   : AAC
Формат/Информация                        : Advanced Audio Codec
Профиль формата                          : LC
Идентификатор кодека                     : 40
Продолжительность                        : 1 ч. 41 м.
Вид битрейта                             : Переменный
Битрейт                                  : 132 Кбит/сек
Максимальный битрейт                     : 220 Кбит/сек
Каналы                                   : 2 канала
Расположение каналов                     : Front: L R
Частота                                  : 48,0 КГц
Метод сжатия                             : С потерями
Размер потока                            : 96,3 Мбайт (6%)
Язык                                     : Russian
Дата кодирования                         : UTC 2012-10-06 19:15:53
Дата пометки                             : UTC 2012-10-06 19:19:43
Аудио #4
Идентификатор                            : 5
Формат                                   : AAC
Формат/Информация                        : Advanced Audio Codec
Профиль формата                          : LC
Идентификатор кодека                     : 40
Продолжительность                        : 1 ч. 41 м.
Вид битрейта                             : Переменный
Битрейт                                  : 132 Кбит/сек
Максимальный битрейт                     : 216 Кбит/сек
Каналы                                   : 2 канала
Расположение каналов                     : Front: L R
Частота                                  : 48,0 КГц
Метод сжатия                             : С потерями
Размер потока                            : 96,5 Мбайт (6%)
Язык                                     : English
Дата кодирования                         : UTC 2012-10-06 19:15:53
Дата пометки                             : UTC 2012-10-06 19:21:05
Текст #1
Идентификатор                            : 6
Формат                                   : Timed text
Режим смешивания                         : sbtl
Идентификатор кодека                     : tx3g
Продолжительность                        : 1 ч. 33 м.
Вид битрейта                             : Переменный
Битрейт                                  : 117 бит/сек
Размер потока                            : 80,2 Кбайт (0%)
Язык                                     : Russian
Дата кодирования                         : UTC 2012-10-06 19:15:53
Дата пометки                             : UTC 2012-10-06 19:21:05
Текст #2
Идентификатор                            : 7
Формат                                   : Timed text
Режим смешивания                         : sbtl
Идентификатор кодека                     : tx3g
Продолжительность                        : 1 ч. 33 м.
Вид битрейта                             : Переменный
Битрейт                                  : 117 бит/сек
Размер потока                            : 79,5 Кбайт (0%)
Язык                                     : English
Дата кодирования                         : UTC 2012-10-06 19:15:53
Дата пометки                             : UTC 2012-10-06 19:21:05
Текст #3
Идентификатор                            : 8
Формат                                   : Apple text
Идентификатор кодека                     : text
Продолжительность                        : 1 ч. 41 м.
Вид битрейта                             : Переменный
Битрейт                                  : 1 бит/сек
Размер потока                            : 471 байт (0%)
Язык                                     : English
Дата кодирования                         : UTC 2012-10-06 19:21:05
Дата пометки                             : UTC 2012-10-06 19:21:05
Меню
00:00:00.000                             : Chapter 1
00:03:07.437                             : Chapter 2
00:08:05.735                             : Chapter 3
00:17:13.866                             : Chapter 4
00:21:30.289                             : Chapter 5
00:25:47.588                             : Chapter 6
00:28:46.224                             : Chapter 7
00:34:59.514                             : Chapter 8
00:39:04.884                             : Chapter 9
00:43:50.127                             : Chapter 10
00:52:53.504                             : Chapter 11
00:57:14.556                             : Chapter 12
01:00:54.025                             : Chapter 13
01:04:16.144                             : Chapter 14
01:07:18.701                             : Chapter 15
01:14:29.131                             : Chapter 16
01:17:40.906                             : Chapter 17
01:22:38.787                             : Chapter 18
01:27:15.230                             : Chapter 19
01:33:54.671                             : Chapter 20

x264 Log
Код:
Код:
x264 [info]: frame I:1765  Avg QP:16.93  size: 40705  PSNR Mean Y:46.58 U:49.36 V:50.10 Avg:47.08 Global:46.28
x264 [info]: frame P:144683 Avg QP:19.77  size:  8737  PSNR Mean Y:44.33 U:49.77 V:50.68 Avg:44.98 Global:44.06
x264 [info]: mb I  I16..4: 27.5%  0.0% 72.5%
x264 [info]: mb P  I16..4:  2.4%  0.0%  3.3%  P16..4: 46.6% 20.6%  6.6%  0.0%  0.0%    skip:20.6%
x264 [info]: coded y,uvDC,uvAC intra: 69.5% 68.2% 39.9% inter: 27.8% 16.9% 3.5%
x264 [info]: i16 v,h,dc,p: 38% 14% 22% 26%
x264 [info]: i4 v,h,dc,ddl,ddr,vr,hd,vl,hu: 28% 14% 16%  6%  8%  9%  6%  8%  5%
x264 [info]: i8c dc,h,v,p: 50% 16% 26%  8%
x264 [info]: ref P L0: 69.1% 30.9%
x264 [info]: SSIM Mean Y:0.9843800 (18.063db)
x264 [info]: PSNR Mean Y:44.356 U:49.768 V:50.673 Avg:45.002 Global:44.083 kb/s:1749.80

HD версия фильма



Вернуться к началу
 Профиль Отправить личное сообщение  
 
   Похожие торренты   Автор   Торрент   Размер 
В этой теме нет новых непрочитанных сообщений. Чарли, Чарли / Charlie Charlie [ужасы, 2016] HDRip, Avo

salma3

106 | 20

698.71 МБ

В этой теме нет новых непрочитанных сообщений. Чарли Валентин / Charlie Valentine [Триллер, драма, криминал, 2009] BDRip 720p, Dvo

salma3

50 | 15

4.49 ГБ

В этой теме нет новых непрочитанных сообщений. Чарли Бабблз / Charlie Bubbles [драма, комедия, 1967] DVDRip, Dvo

salma3

3 | 0

1.37 ГБ

В этой теме нет новых непрочитанных сообщений. Ангелы Чарли 2: Только вперед / Charlie's Angels: Full Throttle [боевик, комедия, криминал, 2003] BDRip-AVC, Dub

salma3

18 | 6

2.18 ГБ

В этой теме нет новых непрочитанных сообщений. Рождество Чарли Брауна / A Charlie Brown Christmas [мультфильм, комедия, семейный, короткометражка, 1965] BDRip 720p, Mvo

salma3

28 | 11

2.32 ГБ

В этой теме нет новых непрочитанных сообщений. Супер Майк XXL / Magic Mike XXL (Грегори Джейкобс) [комедия, музыка, драма, 2015] BDRip-AVC, Dub+Sub [BD CEE]

Dracon

635 | 56

2.18 ГБ

В этой теме нет новых непрочитанных сообщений. Супер Майк XXL / Magic Mike XXL (Грегори Джейкобс) [комедия, музыка, драма, 2015] BDRip 720p, Dub+Sub [Blu-ray EUR]

Dracon

148 | 4

5.88 ГБ


Начать новую тему Ответить на тему  [ 1 сообщение ] 




Для Мосгорсуда, Роскомнадзора и рекламодателей:: mosgorsud-torrent[собачка]yandex.ru
cron