Торрент файл
скачать торрент магнет ссылка Добавлен: 11 янв 2013, 22:14
Размер: 2.71 ГБ
Сидеров: 9
Личеров: 5
Автор

СообщениеДобавлено: 11 янв 2013, 22:14 

Не в сети
Супермодератор
Аватара пользователя
Дата регистрации:
11 апр 2010, 18:10
Спасибо: 5995 / 7
Сообщения: 56685
id="p-25224744-1">Дневник памяти / The Notebook«За каждой большой любовью стоит большая история»


Год выпуска: 2004
Страна: США
Жанр: мелодрама, драма
Продолжительность: 02:03:48
Перевод: профессиональный (полное дублирование)
Оригинальная аудиодорожка: английский
Русские субтитры: есть
Навигация по главам: есть

Режиссер: Ник Кассаветис / Nick Cassavetes

В ролях:
Райан Гослинг, Рейчел МакАдамс, Джеймс Гарнер, Джина Роуландс, Джеймс Марсден, Сэм Шепард, Дэвид Торнтон, Джоан Аллен, Кевин Коннолли, Дженнифер Экхолс

Описание:
Трогательная история любви, прочитанная пожилым мужчиной из старой записной книжки женщине в доме престарелых. Это история отношений юноши и девушки из разных социальных слоев, живших в Северной Каролине. Ной и Элли провели вместе незабываемое лето, пока их не разделили вначале родители, а затем Вторая мировая война.
После войны все изменилось: Элли обручилась с удачливым бизнесменом, а Ной жил наедине со своими воспоминаниями в старинном доме, который ему удалось отреставрировать. Когда Элли прочла об этом в местной газете, она поняла: ей нужно найти его и решить наконец судьбу их любви…

Качество: BDRip
Формат: M4V
Видео кодек: H.264
Аудио кодек: AAC
Видео: H.264, 1280x544, 23.976 fps, 2806 kbps
Аудио 1: Русский: 48 kHz, AAC, 160kbps avg
Аудио 2: Английский: 48 kHz, AAC, 160kbps avg
Субтитры: русские(с BD), русские, английские
MediaInfo
Код:
Код:
The Notebook.m4v
Формат : MPEG-4
Идентификатор кодека : M4V
Размер файла : 2,71 Гбайт
Продолжительность : 2 ч. 3 м.
Общий поток : 3134 Кбит/сек
Название фильма : The Notebook
Исполнитель : Nick Cassavetes
Жанр : Romance
Дата записи : UTC 2004-09-02 07:00:00
Дата кодирования : UTC 2011-10-22 17:40:50
Дата пометки : UTC 2011-10-23 17:45:08
Обложка : Yes
desc : Трогательная история любви, прочитанная пожилым мужчиной из старой записной книжки женщине в доме престарелых.
ldes : Трогательная история любви, прочитанная пожилым мужчиной из старой записной книжки женщине в доме престарелых. Это история отношений юноши и девушки из разных социальных слоев, живших в Северной Каролине.
hdvd : 1
stik : 9
cnID : 294895043
xid : iPad:vendor_id:2004-3561
iTunEXTC : mpaa|PG-13|300|
iTunMOVI : / / / / cast / / / name / Райан Гослинг / / / name / Рейчел МакАдамс / / / name / Джеймс Гарнер / / / name / Джина Роуландс / / / name / Джеймс Марсден / / / name / Сэм Шепард / / / name / Дэвид Торнтон / / / name / Джоан Аллен / / / name / Кевин Коннолли / / / name / Дженнифер Экхолс / / / directors / / / name / Ник Кассаветис / / / producers / / / name / Линн Харрис / / / name / Марк Джонсон / / / name / Тоби Эммерих / / / screenwriters / / / name / Джереми Левин / / / name / Николас Спаркс / / / name / Ян Сарди / / / /
Видео
Идентификатор : 1
Формат : AVC
Формат/Информация : Advanced Video Codec
Профиль формата : [email protected]
Параметр CABAC формата : Да
Параметр ReFrames формата : 9 кадры
Идентификатор кодека : avc1
Идентификатор кодека/Информация : Advanced Video Coding
Продолжительность : 2 ч. 3 м.
Вид битрейта : Переменный
Битрейт : 2807 Кбит/сек
Максимальный битрейт : 18,5 Мбит/сек
Ширина : 1280 пикс.
Высота : 544 пикс.
Соотношение сторон : 2,35:1
Режим частоты кадров : Постоянный
Частота кадров : 23,976 кадр/сек
Цветовое пространство : YUV
Подвыборка цветности : 4:2:0
Битовая глубина : 8 бит
Тип развёртки : Прогрессивная
Бит/(Пиксели*Кадры) : 0.168
Размер потока : 2,43 Гбайт (90%)
Заголовок : The Notebook 2004
Библиотека кодирования : x264 core 107 r1745 4785e8e
Настройки программы : cabac=1 / ref=9 / deblock=1:-2:-1 / analyse=0x3:0x113 / me=umh / subme=10 / psy=1 / psy_rd=1.00:0.10 / mixed_ref=1 / me_range=32 / chroma_me=1 / trellis=2 / 8x8dct=1 / cqm=0 / deadzone=21,11 / fast_pskip=1 / chroma_qp_offset=-3 / threads=6 / sliced_threads=0 / nr=0 / decimate=1 / interlaced=0 / constrained_intra=0 / bframes=8 / b_pyramid=2 / b_adapt=2 / b_bias=0 / direct=3 / weightb=1 / open_gop=0 / weightp=2 / keyint=250 / keyint_min=23 / scenecut=40 / intra_refresh=0 / rc_lookahead=60 / rc=crf / mbtree=1 / crf=18.5 / qcomp=0.70 / qpmin=10 / qpmax=51 / qpstep=4 / ip_ratio=1.40 / aq=2:0.90 / zones=170432,178117,q=30
Язык : English
Коэффициенты матрицы : BT.709-5, BT.1361, IEC 61966-2-4 709, SMPTE RP177
Аудио #1
Идентификатор : 2
Формат : AAC
Формат/Информация : Advanced Audio Codec
Профиль формата : LC
Идентификатор кодека : 40
Продолжительность : 2 ч. 3 м.
Вид битрейта : Переменный
Битрейт : 181 Кбит/сек
Максимальный битрейт : 234 Кбит/сек
Канал(ы) : 2 канала(ов)
Расположение каналов : Front: L R
Частота : 48,0 КГц
Метод сжатия : С потерями
Размер потока : 160 Мбайт (6%)
Заголовок : Russian
Язык : Russian
Аудио #2
Идентификатор : 3
Формат : AAC
Формат/Информация : Advanced Audio Codec
Профиль формата : LC
Идентификатор кодека : 40
Продолжительность : 2 ч. 3 м.
Вид битрейта : Переменный
Битрейт : 139 Кбит/сек
Максимальный битрейт : 191 Кбит/сек
Канал(ы) : 2 канала(ов)
Расположение каналов : Front: L R
Частота : 48,0 КГц
Метод сжатия : С потерями
Размер потока : 123 Мбайт (4%)
Заголовок : English
Язык : English
Текст #1
Идентификатор : 4
Формат : Timed text
Режим смешивания : sbtl
Идентификатор кодека : tx3g
Продолжительность : 2 ч. 3 м.
Вид битрейта : Переменный
Битрейт : 75 бит/сек
Размер потока : 68,2 Кбайт (0%)
Заголовок : BD
Язык : Russian
Текст #2
Идентификатор : 5
Формат : Timed text
Режим смешивания : sbtl
Идентификатор кодека : tx3g
Продолжительность : 1 ч. 58 м.
Вид битрейта : Переменный
Битрейт : 83 бит/сек
Размер потока : 71,7 Кбайт (0%)
Заголовок : DVD
Язык : Russian
Текст #3
Идентификатор : 6
Формат : Timed text
Режим смешивания : sbtl
Идентификатор кодека : tx3g
Продолжительность : 1 ч. 57 м.
Вид битрейта : Переменный
Битрейт : 63 бит/сек
Размер потока : 54,5 Кбайт (0%)
Язык : English
Текст #4
Идентификатор : 7
Формат : Apple text
Идентификатор кодека : text
Продолжительность : 2 ч. 3 м.
Вид битрейта : Переменный
Битрейт : 1 бит/сек
Размер потока : 775 байт (0%)

Скриншоты



Вернуться к началу
 Профиль Отправить личное сообщение  
 
   Похожие торренты   Автор   Торрент   Размер 
В этой теме нет новых непрочитанных сообщений. Дневник девочки-подростка / The Diary of a Teenage Girl [Драма, мелодрама, 2015] BDRip 720p, Mvo [iTunes]

Dracon

7 | 2

4.64 ГБ

В этой теме нет новых непрочитанных сообщений. Пассажиры / Passengers [фантастика, драма, мелодрама, приключения, 2016] BDRip 720p, Dub [iPad] [Лицензия]

salma3

97 | 14

2.12 ГБ

В этой теме нет новых непрочитанных сообщений. Призрачная красота / Collateral Beauty [драма, мелодрама, 2016] BDRip 720p, Dub [iPad] [Лицензия]

salma3

77 | 4

2.07 ГБ

В этой теме нет новых непрочитанных сообщений. Забирая жизни / Taking Lives [триллер, криминал, детектив, 2004] BDRip 720p, Dub [Режиссерская версия] [iPad]

salma3

0 | 0

1.64 ГБ

В этой теме нет новых непрочитанных сообщений. Бриджит Джонс 3 / Bridget Jones's Baby [мелодрама, комедия, 2016] BDRip 720p, Dub [iPad] [Лицензия]

salma3

45 | 15

2.4 ГБ

В этой теме нет новых непрочитанных сообщений. Бен-Гур / Ben-Hur [боевик, драма, приключения, 2016] BDRip 720p, Du [iPad] [Лицензия]

salma3

0 | 0

2.62 ГБ

В этой теме нет новых непрочитанных сообщений. 28 панфиловцев [военный, драма, 2016] BDRip 720p, Dub [iPad] [Лицензия]

salma3

0 | 0

2.39 ГБ


Начать новую тему Ответить на тему  [ 1 сообщение ] 




Для Мосгорсуда, Роскомнадзора и рекламодателей:: mosgorsud-torrent[собачка]yandex.ru
cron