Торрент файл
скачать торрент магнет ссылка Добавлен: 11 янв 2013, 22:14
Размер: 3.45 ГБ
Сидеров: 0
Личеров: 3
Автор

СообщениеДобавлено: 11 янв 2013, 22:14 

Не в сети
Супермодератор
Аватара пользователя
Дата регистрации:
11 апр 2010, 18:10
Спасибо: 5996 / 7
Сообщения: 56684
id="p-25224744-1">
Сокровище нации / National Treasure«The greatest adventure history has ever revealed.»


Страна: США
Жанр: боевик, триллер, детектив, приключения
Год выпуска: 2004
Продолжительность: 02:11:04

Перевод: Профессиональный (полное дублирование)
Оригинальная аудиодорожка: Английский
Cубтитры: Русские, Английские
Режиссер: Джон Тёртелтауб / Jon Turteltaub

В ролях: Николас Кейдж (Benjamin Franklin Gates,), Дайан Крюгер (Abigail Chase), Джастин Барта (Riley Poole), Шон Бин (Ian Howe), Джон Войт (Patrick Gates), Харви Кейтель (Sadusky), Кристофер Пламмер (John Adams Gates), Дэвид Дайан Фишер (Shaw), Стюарт Финлэй-МакЛеннан (Powell), Олег Тактаров (Shippen), Стефен А. Поуп (Phil), Энни Париссе (Agent Dawes)
Дублёры: Станислав Концевич (Benjamin Franklin Gates), Елена Шульман (Abigail Chase), Андрей Лёвин (Riley Poole), Андрей Ургант (Ian Howe), Игорь Шибанов (Patrick Gates), Вадим Яковлев (Sadusky), Юрий Лазарев (John Adams Gates), Максим Сергеев (Shippen), Иван Паршин (Agent Johnson), Валерий Кухарешин (Dr. Stan Herbert)

Описание: Современные охотники за сокровищами во главе с Беном Франклином Гейтсом узнают старинную легенду о сокровище, спрятанном еще отцами-основателями американского государства Джорджем Вашингтоном, Бенджамином Франклином и Томасом Джефферсоном.
Узнать тайну клада можно с помощью Декларации Независимости США, в которой зашифрована разгадка. Но помимо разгадывания изощренной головоломки, нашим героям предстоит сразиться с любителями легкой наживы, жаждущим погреть руки на достоянии республики…
Рейтинг
imdb.com: 6.80 (108 518)
MPAA: PG - Рекомендуется присутствие родителей
Качество видео: BDRip - Исходник BD Remux
Формат видео: m4v
Видео кодек: H.264
Аудио кодек: AAC
Видео: 1280х528 (2.40:1), 23,976 fps, H.264 3400 kbps avg, 0.210 bit/pixel
Аудио #1: Russian, 48,0 kHz, AAC LC, 2 ch, 177 kbps avg | DUB
Аудио #2: English, 48,0 kHz, AAC LC, 2 ch, 183 kbps avg | Original
MediaInfo
Код:
Код:
General
Complete name                            : D:\iPad\National Treasure 1\National.Treasure.2004.BDRip.m4v
Format                                   : MPEG-4
Codec ID                                 : M4V
File size                                : 3.45 GiB
Duration                                 : 2h 11mn
Overall bit rate mode                    : Variable
Overall bit rate                         : 3 772 Kbps
Movie name                               : Сокровище нации
Performer                                : Джон Тёртелтауб
Genre                                    : боевик, триллер, детектив
Recorded date                            : UTC 2004-11-08 07:00:00
Encoded date                             : UTC 2011-12-02 04:00:04
Tagged date                              : UTC 2011-12-03 04:06:29
Writing application                      : MkvToMp4 [www.mkvtomp4.ru] version 0.218Test2
Cover                                    : Yes
desc                                     : Современные охотники за сокровищами во главе с Беном Франклином Гейтсом узнают старинную легенду о сокровище, спрятанном еще отцами-основателями американского государства Джорджем Вашингтоном, Бенджамином Франклином и Томасом Джефферсоном.
ldes                                     : Современные охотники за сокровищами во главе с Беном Франклином Гейтсом узнают старинную легенду о сокровище, спрятанном еще отцами-основателями американского государства Джорджем Вашингтоном, Бенджамином Франклином и Томасом Джефферсоном. Узнать тайну клада можно с помощью Декларации Независимости США, в которой зашифрована разгадка. Но помимо разгадывания изощренной головоломки, нашим героям предстоит сразиться с любителями легкой наживы, жаждущим погреть руки на достоянии республики…
hdvd                                     : 1
stik                                     : 9
cnID                                     : 312918570
xid                                      : RG-Apple:vendor_id:2004-61333
iTunEXTC                                 : mpaa|PG|200|
iTunMOVI                                 : <?xml version="1.0" encoding="UTF-8"?> / <!DOCTYPE plist PUBLIC "-/Apple/DTD PLIST 1.0/EN" "http:/www.apple.com/DTDs/PropertyList-1.0.dtd"> / <plist version="1.0"> /  <dict> /   <key>cast</key> /   <array> /    <dict> /     <key>name</key> /     <string>Николас Кейдж</string> /    </dict> /    <dict> /     <key>name</key> /     <string>Дайан Крюгер</string> /    </dict> /    <dict> /     <key>name</key> /     <string>Джастин Барта</string> /    </dict> /    <dict> /     <key>name</key> /     <string>Шон Бин</string> /    </dict> /    <dict> /     <key>name</key> /     <string>Джон Войт</string> /    </dict> /    <dict> /     <key>name</key> /     <string>Харви Кейтель</string> /    </dict> /    <dict> /     <key>name</key> /     <string>Кристофер Пламмер</string> /    </dict> /    <dict> /     <key>name</key> /     <string>Дэвид Дайан Фишер</string> /    </dict> /    <dict> /     <key>name</key> /     <string>Стюарт Финлэй-МакЛеннан</string> /    </dict> /    <dict> /     <key>name</key> /     <string>Олег Тактаров</string> /    </dict> /   </array> /   <key>directors</key> /   <array> /    <dict> /     <key>name</key> /     <string>Джон Тёртелтауб</string> /    </dict> /   </array> /   <key>producers</key> /   <array> /    <dict> /     <key>name</key> /     <string>Джерри Брукхаймер</string> /    </dict> /    <dict> /     <key>name</key> /     <string>Джон Тёртелтауб</string> /    </dict> /    <dict> /     <key>name</key> /     <string>Орен Авив</string> /    </dict> /   </array> /   <key>screenwriters</key> /   <array> /    <dict> /     <key>name</key> /     <string>Джим Кауф</string> /    </dict> /    <dict> /     <key>name</key> /     <string>Кормак Уибберли</string> /    </dict> /    <dict> /     <key>name</key> /     <string>Мэриэнн Уибберли</string> /    </dict> /   </array> /  </dict> / </plist>
Video
ID                                       : 1
Format                                   : AVC
Format/Info                              : Advanced Video Codec
Format profile                           : [email protected]
Format settings, CABAC                   : Yes
Format settings, ReFrames                : 9 frames
Codec ID                                 : avc1
Codec ID/Info                            : Advanced Video Coding
Duration                                 : 2h 11mn
Bit rate                                 : 3 400 Kbps
Maximum bit rate                         : 14.4 Mbps
Width                                    : 1 280 pixels
Height                                   : 528 pixels
Display aspect ratio                     : 2.40:1
Frame rate mode                          : Variable
Frame rate                               : 23.976 fps
Minimum frame rate                       : 23.810 fps
Maximum frame rate                       : 24.390 fps
Color space                              : YUV
Chroma subsampling                       : 4:2:0
Bit depth                                : 8 bits
Scan type                                : Progressive
Bits/(Pixel*Frame)                       : 0.210
Stream size                              : 3.11 GiB (90%)
Writing library                          : x264 core 112
Encoding settings                        : cabac=1 / ref=9 / deblock=1:0:0 / analyse=0x3:0x113 / me=umh / subme=9 / psy=1 / psy_rd=1.00:0.00 / mixed_ref=1 / me_range=32 / chroma_me=1 / trellis=1 / 8x8dct=1 / cqm=0 / deadzone=21,11 / fast_pskip=1 / chroma_qp_offset=-2 / threads=12 / sliced_threads=0 / nr=0 / decimate=1 / interlaced=0 / constrained_intra=0 / bframes=6 / b_pyramid=2 / b_adapt=1 / b_bias=0 / direct=1 / weightb=1 / open_gop=0 / weightp=2 / keyint=240 / keyint_min=23 / scenecut=40 / intra_refresh=0 / rc_lookahead=40 / rc=2pass / mbtree=1 / bitrate=3400 / ratetol=1.0 / qcomp=0.60 / qpmin=3 / qpmax=51 / qpstep=4 / cplxblur=20.0 / qblur=0.5 / ip_ratio=1.40 / aq=1:1.00
Language                                 : English
Encoded date                             : UTC 2011-12-02 04:00:04
Tagged date                              : UTC 2011-12-02 04:01:56
Color primaries                          : BT.709-5, BT.1361, IEC 61966-2-4, SMPTE RP177
Transfer characteristics                 : BT.709-5, BT.1361
Matrix coefficients                      : BT.709-5, BT.1361, IEC 61966-2-4 709, SMPTE RP177
Audio #1
ID                                       : 2
Format                                   : AAC
Format/Info                              : Advanced Audio Codec
Format profile                           : LC
Codec ID                                 : 40
Duration                                 : 2h 11mn
Bit rate mode                            : Variable
Bit rate                                 : 177 Kbps
Maximum bit rate                         : 231 Kbps
Channel(s)                               : 2 channels
Channel positions                        : Front: L R
Sampling rate                            : 48.0 KHz
Compression mode                         : Lossy
Stream size                              : 166 MiB (5%)
Title                                    : DUB
Language                                 : Russian
Encoded date                             : UTC 2011-12-02 04:01:28
Tagged date                              : UTC 2011-12-02 04:01:56
Audio #2
ID                                       : 3
Format                                   : AAC
Format/Info                              : Advanced Audio Codec
Format profile                           : LC
Codec ID                                 : 40
Duration                                 : 2h 11mn
Bit rate mode                            : Variable
Bit rate                                 : 183 Kbps
Maximum bit rate                         : 233 Kbps
Channel(s)                               : 2 channels
Channel positions                        : Front: L R
Sampling rate                            : 48.0 KHz
Compression mode                         : Lossy
Stream size                              : 172 MiB (5%)
Title                                    : Original
Language                                 : English
Encoded date                             : UTC 2011-12-02 04:01:42
Tagged date                              : UTC 2011-12-02 04:01:56
Text #1
ID                                       : 4
Format                                   : Timed text
Muxing mode                              : sbtl
Codec ID                                 : tx3g
Duration                                 : 2h 1mn
Bit rate mode                            : Variable
Bit rate                                 : 78 bps
Stream size                              : 69.5 KiB (0%)
Language                                 : Russian
Encoded date                             : UTC 2011-12-02 04:01:55
Tagged date                              : UTC 2011-12-02 04:01:56
Text #2
ID                                       : 5
Format                                   : Timed text
Muxing mode                              : sbtl
Codec ID                                 : tx3g
Duration                                 : 2h 1mn
Bit rate mode                            : Variable
Bit rate                                 : 64 bps
Stream size                              : 56.7 KiB (0%)
Language                                 : English
Encoded date                             : UTC 2011-12-02 04:01:55
Tagged date                              : UTC 2011-12-02 04:01:56

x264 log
Код:
Код:
x264 [info]: frame I:3362  Avg QP:16.29  size: 94196  PSNR Mean Y:47.07 U:47.95 V:49.39 Avg:47.49 Global:47.10
x264 [info]: frame P:98190 Avg QP:18.81  size: 24385  PSNR Mean Y:45.08 U:46.86 V:49.04 Avg:45.76 Global:45.34
x264 [info]: frame B:87007 Avg QP:20.76  size:  7232  PSNR Mean Y:44.32 U:47.02 V:49.12 Avg:45.15 Global:44.60
x264 [info]: consecutive B-frames: 24.5% 36.6% 12.6% 16.5%  7.1%  1.8%  0.9%
x264 [info]: mb I  I16..4:  9.7% 76.7% 13.5%
x264 [info]: mb P  I16..4:  1.2%  5.8%  0.8%  P16..4: 45.7% 24.4% 14.1%  0.0%  0.0%    skip: 8.0%
x264 [info]: mb B  I16..4:  0.1%  0.3%  0.1%  B16..8: 44.0%  7.0%  1.7%  direct: 3.8%  skip:43.1%  L0:43.5% L1:49.4% BI: 7.2%
x264 [info]: 8x8 transform intra:74.7% inter:70.5%
x264 [info]: coded y,uvDC,uvAC intra: 83.7% 87.4% 66.6% inter: 32.3% 35.5% 7.1%
x264 [info]: i16 v,h,dc,p: 47% 15%  9% 29%
x264 [info]: i8 v,h,dc,ddl,ddr,vr,hd,vl,hu:  8%  7%  4% 11% 16% 15% 15% 12% 12%
x264 [info]: i4 v,h,dc,ddl,ddr,vr,hd,vl,hu:  9%  8%  3%  9% 16% 15% 15% 12% 13%
x264 [info]: i8c dc,h,v,p: 47% 18% 17% 18%
x264 [info]: Weighted P-Frames: Y:7.4% UV:5.1%
x264 [info]: ref P L0: 51.5% 10.8% 15.6%  6.4%  4.9%  3.6%  3.1%  1.7%  1.6%  0.8%  0.1%
x264 [info]: ref B L0: 69.5% 14.3%  6.8%  3.3%  2.5%  2.0%  1.4%  0.3%
x264 [info]: ref B L1: 94.4%  5.6%
x264 [info]: SSIM Mean Y:0.9785118 (16.678db)
x264 [info]: PSNR Mean Y:44.768 U:46.957 V:49.083 Avg:45.509 Global:45.006 kb/s:3397.81

Скриншоты

Скриншоты с iPad




Вернуться к началу
 Профиль Отправить личное сообщение  
 
   Похожие торренты   Автор   Торрент   Размер 
В этой теме нет новых непрочитанных сообщений. Сокровище нации / National Treasure [приключения, 2004] BDRemux 1080p, Dub

salma3

0 | 0

29.38 ГБ

В этой теме нет новых непрочитанных сообщений. Забирая жизни / Taking Lives [триллер, криминал, детектив, 2004] BDRip 720p, Dub [Режиссерская версия] [iPad]

salma3

0 | 0

1.64 ГБ

В этой теме нет новых непрочитанных сообщений. Сокровище Амазонки / The Rundown [боевик, триллер, комедия, 2003] BDRip-HEVC 720p, Dub [60 fps]

salma3

0 | 0

2.54 ГБ

В этой теме нет новых непрочитанных сообщений. Сокровище Амазонки / The Rundown [боевик, триллер, комедия, приключения, 2003] BDRip 720p, Dub

salma3

235 | 28

4.36 ГБ

В этой теме нет новых непрочитанных сообщений. Восставший / Risen [боевик, драма, детектив, приключения, 2016] BDRip 720p, Dub [iPad]

salma3

29 | 9

1.91 ГБ

В этой теме нет новых непрочитанных сообщений. 400 дней / 400 Days [фантастика, триллер, детектив, 2015] BDRip 720p, Dvo [iPad]

salma3

45 | 21

1.66 ГБ

В этой теме нет новых непрочитанных сообщений. 400 дней / 400 Days [фантастика, триллер, детектив, 2015] BDRip 720p, Dvo [iPad]

salma3

2 | 1

1.66 ГБ


Начать новую тему Ответить на тему  [ 1 сообщение ] 




Для Мосгорсуда, Роскомнадзора и рекламодателей:: mosgorsud-torrent[собачка]yandex.ru
cron