Торрент файл
скачать торрент магнет ссылка Добавлен: 11 янв 2013, 22:12
Размер: 806.49 МБ
Сидеров: 1
Личеров: 3
Автор

СообщениеДобавлено: 11 янв 2013, 22:12 

Не в сети
Супермодератор
Аватара пользователя
Дата регистрации:
11 апр 2010, 18:10
Спасибо: 5995 / 7
Сообщения: 56685
id="p-25224744-1">Больше чем секс
No Strings Attached
Год выпуска: 2011
Страна: США
Жанр: мелодрама, комедия
Продолжительность: 01:47:58
Перевод :
Профессиональный (Дублированное)
Оригинальная дорожка
Субтитры:
есть (русские, английские)
Режиссёр:
Айвен Райтман
В ролях:
Натали Портман, Эштон Катчер, Кевин Клайн, Кэри Элвис, Грета Гервиг, Лэйк Белл, Оливия Тирлби, Лудакрис, Джэйк М. Джонсон, Мелинда Калинг и др.
Описание:Романтическая комедия о том, как легко мужчины и женщины вступают в сексуальную связь, но как трудно им достичь эмоциональной близости. Главных героев связывают только сексуальные отношения, но со временем они понимают, что на смену физиологическим инстинктам приходит нечто большее.
Качество: BDRip | Формат: *.mp4 | Видео кодек: H.264 | Аудио кодек: ААС | Разрешение: 720х320 | Другие параметры видео: 782 Кбит/сек; 23,976 кадр/сек | Аудио 1 : 128 Кбит/сек; 2 канала; 48,0 КГц | Аудио 2 : 128 Кбит/сек; 2 канала; 48,0 КГц | Вшитая обложка: есть | Доп. теги (режиссёр, актёры и т.д.): прописаны | Главы: нет
Все раздачи "Больше чем секс" в разделе Видео (iPhone, iPod Touch)
MediaInfo
Код:
Код:
Общее
Полное имя                       : G:\Раздачи\Видео\No Strings Attached\No.Strings.Attached.2011.BDRip.320p.Stroller.mp4
Формат                           : MPEG-4
Профиль формата                  : Base Media / Version 2
Идентификатор кодека             : mp42
Размер файла                     : 806 Мбайт
Продолжительность                : 1 ч. 47 м.
Общий поток                      : 1044 Кбит/сек
Название фильма                  : Больше чем секс
Исполнитель                      : No Strings Attached
Жанр                             : Comedy
Дата записи                      : UTC 2011-01-21 08:00:00
Дата кодирования                 : UTC 2011-06-23 14:28:28
Дата пометки                     : UTC 2011-06-25 11:17:35
Программа кодирования            : HandBrake 0.9.5 2011010300
Правообладатель                  : Stroller
Обложка                          : Yes
Примечание                       : © by RG Apple from rutracker.org
iTunEXTC                         : mpaa|R|400|
iTunMOVI                         : <?xml version="1.0" encoding="UTF-8"?> / <!DOCTYPE plist PUBLIC "-/Apple/DTD PLIST 1.0/EN" "http:/www.apple.com/DTDs/PropertyList-1.0.dtd"> / <plist version="1.0"> / <dict> /  <key>cast</key> /  <array> /   <dict> /    <key>name</key> /    <string>Натали Портман</string> /   </dict> /   <dict> /    <key>name</key> /    <string>Эштон Катчер</string> /   </dict> /   <dict> /    <key>name</key> /    <string>Кевин Клайн</string> /   </dict> /   <dict> /    <key>name</key> /    <string>Кэри Элвис</string> /   </dict> /   <dict> /    <key>name</key> /    <string>Грета Гервиг</string> /   </dict> /   <dict> /    <key>name</key> /    <string>Лэйк Белл</string> /   </dict> /   <dict> /    <key>name</key> /    <string>Оливия Тирлби</string> /   </dict> /   <dict> /    <key>name</key> /    <string>Лудакрис</string> /   </dict> /   <dict> /    <key>name</key> /    <string>Джэйк М. Джонсон</string> /   </dict> /   <dict> /    <key>name</key> /    <string>Мелинда Калинг и др.</string> /   </dict> /  </array> /  <key>directors</key> /  <array> /   <dict> /    <key>name</key> /    <string>Айвен Райтман</string> /   </dict> /  </array> /  <key>producers</key> /  <array> /   <dict> /    <key>name</key> /    <string>Айвен Райтман</string> /   </dict> /   <dict> /    <key>name</key> /    <string>Джеффри Клиффорд</string> /   </dict> /   <dict> /    <key>name</key> /    <string>Джо Медьяк</string> /   </dict> /  </array> /  <key>screenwriters</key> /  <array> /   <dict> /    <key>name</key> /    <string>Элизабет Меривезер</string> /   </dict> /   <dict> /    <key>name</key> /    <string>Майкл Самонек</string> /   </dict> /  </array> / </dict> / </plist>
desc                             : Романтическая комедия о том, как легко мужчины и женщины вступают в сексуальную связь, но как трудно им достичь эмоциональной близости.
ldes                             : Романтическая комедия о том, как легко мужчины и женщины вступают в сексуальную связь, но как трудно им достичь эмоциональной близости. Главных героев связывают только сексуальные отношения, но со временем они понимают, что на смену физиологическим инстинктам приходит нечто большее.
stik                             : 9
Видео
Идентификатор                    : 1
Формат                           : AVC
Формат/Информация                : Advanced Video Codec
Профиль формата                  : [email protected]
Параметр CABAC формата           : Нет
Параметр ReFrames формата        : 3 кадра
Идентификатор кодека             : avc1
Идентификатор кодека/Информация  : Advanced Video Coding
Продолжительность                : 1 ч. 47 м.
Вид битрейта                     : Переменный
Битрейт                          : 782 Кбит/сек
Ширина                           : 720 пикс.
Высота                           : 320 пикс.
Соотношение сторон               : 2,25:1
Режим частоты кадров             : Переменный
Частота кадров                   : 23,976 кадр/сек
Минимальная частота кадров       : 23,810 кадр/сек
Максимальная частота кадров      : 24,390 кадр/сек
Цветовое пространство            : YUV
Подвыборка цветности             : 4:2:0
Битовая глубина                  : 8 бит
Тип развёртки                    : Прогрессивная
Бит/(Пиксели*Кадры)              : 0.142
Размер потока                    : 604 Мбайт (75%)
Библиотека кодирования           : x264 core 112
Настройки программы              : cabac=0 / ref=3 / deblock=1:0:0 / analyse=0x1:0x111 / me=umh / subme=6 / psy=1 / psy_rd=1.00:0.00 / mixed_ref=1 / me_range=16 / chroma_me=1 / trellis=0 / 8x8dct=0 / cqm=0 / deadzone=21,11 / fast_pskip=1 / chroma_qp_offset=-2 / threads=3 / sliced_threads=0 / nr=0 / decimate=1 / interlaced=0 / constrained_intra=0 / bframes=0 / weightp=0 / keyint=240 / keyint_min=23 / scenecut=40 / intra_refresh=0 / rc_lookahead=40 / rc=crf / mbtree=1 / crf=20.5 / qcomp=0.60 / qpmin=3 / qpmax=51 / qpstep=4 / ip_ratio=1.40 / aq=1:1.00
Дата кодирования                 : UTC 2011-06-23 14:28:28
Дата пометки                     : UTC 2011-06-23 16:26:46
Основные цвета                   : BT.709-5, BT.1361, IEC 61966-2-4, SMPTE RP177
Характеристики трансфера         : BT.709-5, BT.1361
Коэффициенты матрицы             : BT.709-5, BT.1361, IEC 61966-2-4 709, SMPTE RP177
Аудио #1
Идентификатор                    : 2
Формат                           : AAC
Формат/Информация                : Advanced Audio Codec
Профиль формата                  : LC
Идентификатор кодека             : 40
Продолжительность                : 1 ч. 47 м.
Вид битрейта                     : Переменный
Битрейт                          : 128 Кбит/сек
Максимальный битрейт             : 287 Кбит/сек
Каналы                           : 2 канала
Расположение каналов             : Front: L R
Частота                          : 48,0 КГц
Метод сжатия                     : С потерями
Размер потока                    : 98,7 Мбайт (12%)
Язык                             : Russian
Дата кодирования                 : UTC 2011-06-23 14:28:28
Дата пометки                     : UTC 2011-06-23 16:26:45
Аудио #2
Идентификатор                    : 3
Формат                           : AAC
Формат/Информация                : Advanced Audio Codec
Профиль формата                  : LC
Идентификатор кодека             : 40
Продолжительность                : 1 ч. 47 м.
Вид битрейта                     : Переменный
Битрейт                          : 128 Кбит/сек
Максимальный битрейт             : 288 Кбит/сек
Каналы                           : 2 канала
Расположение каналов             : Front: L R
Частота                          : 48,0 КГц
Метод сжатия                     : С потерями
Размер потока                    : 98,6 Мбайт (12%)
Язык                             : English
Дата кодирования                 : UTC 2011-06-23 14:28:28
Дата пометки                     : UTC 2011-06-23 16:26:45
Текст #1
Идентификатор                    : 4
Формат                           : Timed text
Режим смешивания                 : sbtl
Идентификатор кодека             : tx3g
Продолжительность                : 1 ч. 42 м.
Вид битрейта                     : Переменный
Битрейт                          : 119 бит/сек
Размер потока                    : 89,8 Кбайт (0%)
Язык                             : Russian
Дата кодирования                 : UTC 2011-06-23 14:28:28
Дата пометки                     : UTC 2011-06-23 16:23:33
Текст #2
Идентификатор                    : 5
Формат                           : Timed text
Режим смешивания                 : sbtl
Идентификатор кодека             : tx3g
Продолжительность                : 1 ч. 42 м.
Вид битрейта                     : Переменный
Битрейт                          : 73 бит/сек
Размер потока                    : 54,9 Кбайт (0%)
Язык                             : English
Дата кодирования                 : UTC 2011-06-23 14:28:28
Дата пометки                     : UTC 2011-06-23 16:23:33

Как переключить звуковую дорожку / субтитры / главы
iPhone / iPod Touch
Выбрать альтернативный язык звукового сопровождения: Нажмите , затем выберите язык из списка "Аудио".
Показать или скрыть субтитры: Нажмите , затем из списка "Субтитры" выберите язык или "Выкл".
Выбрать главу (эпизод): Нажмите , затем из списка выберете нужную главу (эпизод).
iPod Classic, Nano
Видео -> настройки -> вкл./выкл. альтернативное аудио
Видео -> настройки -> вкл./выкл. субтитры
Скриншоты



Вернуться к началу
 Профиль Отправить личное сообщение  
 
   Похожие торренты   Автор   Торрент   Размер 
В этой теме нет новых непрочитанных сообщений. Голдстоун / Goldstone (Айвен Сен / Ivan Sen) [2016 г, Австралия, криминал, детектив, WEB-DLRip] Sub

Alfredovich

0 | 0

1.05 ГБ

В этой теме нет новых непрочитанных сообщений. [HookupHotshot.com] Lily Adams / No Strings Attached [2016 г., Teens, Facial, Blowjob, Deep Throat, Gagging, Sloppy, Spit, Fuck Dildo, Piss, 720p]

salma3

3 | 0

706.08 МБ

В этой теме нет новых непрочитанных сообщений. [HookupHotshot.com] Lily Adams / No Strings Attached [2016 г., Teens, Facial, Blowjob, Deep Throat, Gagging, Sloppy, Spit, Fuck Dildo, Piss, 1080p]

Dievas2

0 | 1

1.31 ГБ

В этой теме нет новых непрочитанных сообщений. Любовь или секс / The Bounceback [Мелодрама, комедия, 2013] BDRip, Mvo

salma3

1 | 1

742.94 МБ

В этой теме нет новых непрочитанных сообщений. Секс на две ночи / Любовь с первого взгляда / Two Night Stand [комедия, мелодрама, 2014] BDRip, Mvo

salma3

102 | 48

1.71 ГБ

В этой теме нет новых непрочитанных сообщений. Война и Мир / War & Peace (Сезон 1, Серия 1-6 из 6) (Том Харпер) [2016 , Драма, мелодрама, военный, история, экранизация , BDRip 1080p] [MVO] [LostFilm , English ] [DD5.1] + [Subs Rus , Eng]

Враг Нароода

0 | 0

25.85 ГБ

В этой теме нет новых непрочитанных сообщений. Люсия и секс / Lucía y el sexo [драма, мелодрама, 2001] BDRip 720p, Mvo

salma3

99 | 46

4.76 ГБ


Начать новую тему Ответить на тему  [ 1 сообщение ] 




Для Мосгорсуда, Роскомнадзора и рекламодателей:: mosgorsud-torrent[собачка]yandex.ru
cron