Торрент файл
скачать торрент магнет ссылка Добавлен: 11 янв 2013, 22:12
Размер: 2.33 ГБ
Сидеров: 1
Личеров: 3
Автор

СообщениеДобавлено: 11 янв 2013, 22:12 

Не в сети
Супермодератор
Аватара пользователя
Дата регистрации:
11 апр 2010, 18:10
Спасибо: 5995 / 7
Сообщения: 56684
id="p-25224744-1">Изо всех сил / Over the TopГод выпуска: 1987
Страна: США
Жанр: Боевик, драма, семейный, спорт
Продолжительность: 01:34:09
Перевод:
Профессиональный (многоголосый, закадровый) с лицезионного ДВД
Профессиональный (многоголосый, закадровый) с НТВ
Оригинальный
Субтитры №1 (рус)
Субтитры №2 (рус)
Субтитры №3 (англ)
Режиссер: Менахем Голан / Menahem Golan
Сценарий: Гэри Конуэй / Gary Conway, Дэвид Энгелбак / David Engelbach, Стёрлинг Силлифант / Stirling Silliphant, Сильвестр Сталлоне / Sylvester Stallone
Продюсер: Йорам Глобус / Yoram Globus, Менахем Голан / Menahem Golan, Джеймс Д. Брубэйкер / James D. Brubaker, Тони Мунафо / Tony Munafo
Оператор: Давид Гурфинкель / David Gurfinkel
Композитор: Джорджо Мородер / Giorgio Moroder
В ролях: Сильвестр Сталлоне (Lincoln Hawk,), Роберт Лоджа (Jason Cutler), Сьюзэн Блэйкли (Christina Cutler-Hawk), Рик Цумвальт (Bob 'Bull' Hurley), Дэвид Менденхолл (Michael Cutler / Michael Hawk), Крис МакКарти (Tim Salanger), Терри Фанк (Ruker), Боб Битти (Announcer), Аллан Граф (Collins), Мэджик Шварц (Smasher), Брюс Вэй (John Grizzly), Джимми Кигэн (Big Boy - Richie)
Описание: Водитель грузовика Линкольн Хоук, по прозвищу Ястреб, едет в Лас-Вегас на чемпионат мира по армреслингу. У него много забот: надо встретиться и поговорить с бывшей женой, умирающей от странной болезни сердца; проведать, сломав ворота и разобравшись с телохранителями, любимого тестя и любой ценой заполучить сына, брошенного 10 лет назад. Сын, в начале принявший отца в штыки, станет опорой Ястреба и поможет ему выиграть чемпионат.
Рейтинг
kinopoisk.ru: 7.026 (2 982)
imdb.com: 4.70 (13 837)
MPAA: PG - Рекомендуется присутствие родителей
Качество: BDRip
Формат: .m4v
Источник: http://rutracker.org/forum/viewtopic.php?t=2860128
Видео: 1280x544, 3075 Kbps, 23,976 fps
Аудио №1: Russian, AAC LC, 160 Kbps - с лицезионного ДВД
Аудио №2: Russian, AAC LC, 160 Kbps - с НТВ
Аудио №3: English, AAC LC, 160 Kbps
Субтитры №1: Russian
Субтитры №2: Russian
Субтитры №3: English
Вшитая обложка: Есть
Доп. теги (режиссёр, актёры и т.д.): Прописаны
Главы: Прописаны
Как изменить звуковую дорожку/субтитры
Скриншоты

MediaInfo
General
Format : MPEG-4
Format profile : Base Media / Version 2
Codec ID : mp42
File size : 2.33 GiB
Duration : 1h 34mn
Overall bit rate : 3 547 Kbps
Movie name : Изо всех сил / Over the Top
Performer : Сильвестр Сталлоне, Роберт Лоджа, Сьюзэн Блэйкли, Рик Цумвальт, Дэвид Менденхолл, Крис МакКарти, Терри Фанк...
Genre : Action, Drama, Family, Sports
Encoded date : 1987
Tagged date : UTC 2011-05-31 21:30:31
Writing application : HandBrake 0.9.5 2011010300
Cover : Yes
iTunEXTC : mpaa|PG|200|
iTunMOVI : <?xml version="1.0" encoding="UTF-8"?> / <!DOCTYPE plist PUBLIC "-/Apple/DTD PLIST 1.0/EN" "http://www.apple.com/DTDs/PropertyList-1.0.dtd"> / <plist version="1.0"> / <dict> / <key>cast</key> / <array> / <dict> / <key>name</key> / <string>Сильвестр Сталлоне</string> / </dict> / <dict> / <key>name</key> / <string>Роберт Лоджа</string> / </dict> / <dict> / <key>name</key> / <string>Сьюзэн Блэйкли</string> / </dict> / <dict> / <key>name</key> / <string>Рик Цумвальт</string> / </dict> / <dict> / <key>name</key> / <string>Дэвид Менденхолл</string> / </dict> / <dict> / <key>name</key> / <string>Крис МакКарти</string> / </dict> / <dict> / <key>name</key> / <string>Терри Фанк...</string> / </dict> / </array> / <key>directors</key> / <array> / <dict> / <key>name</key> / <string>Менахем Голан / Menahem Golan</string> / </dict> / </array> / <key>producers</key> / <array> / <dict> / <key>name</key> / <string>Йорам Глобус / Yoram Globus</string> / </dict> / <dict> / <key>name</key> / <string>Менахем Голан / Menahem Golan</string> / </dict> / <dict> / <key>name</key> / <string>Джеймс Д. Брубэйкер / James D. Brubaker</string> / </dict> / <dict> / <key>name</key> / <string>Тони Мунафо / Tony Munafo</string> / </dict> / </array> / <key>screenwriters</key> / <array> / <dict> / <key>name</key> / <string>Гэри Конуэй / Gary Conway</string> / </dict> / <dict> / <key>name</key> / <string>Дэвид Энгелбак / David Engelbach</string> / </dict> / <dict> / <key>name</key> / <string>Стёрлинг Силлифант / Stirling Silliphant</string> / </dict> / <dict> / <key>name</key> / <string>Сильвестр Сталлоне / Sylvester Stallone</string> / </dict> / </array> / </dict> / </plist>
desc : Водитель грузовика Линкольн Хоук, по прозвищу Ястреб, едет в Лас-Вегас на чемпионат мира по армреслингу.
ldes : Водитель грузовика Линкольн Хоук, по прозвищу Ястреб, едет в Лас-Вегас на чемпионат мира по армреслингу. У него много забот: надо встретиться и поговорить с бывшей женой, умирающей от странной болезни сердца; проведать, сломав ворота и разобравшись с телохранителями, любимого тестя и любой ценой заполучить сына, брошенного 10 лет назад. Сын, в начале принявший отца в штыки, станет опорой Ястреба и поможет ему выиграть чемпионат.
hdvd : 1
stik : 9
Video
ID : 1
Format : AVC
Format/Info : Advanced Video Codec
Format profile : [email protected]3.1
Format settings, CABAC : Yes
Format settings, ReFrames : 4 frames
Format settings, GOP : M=4, N=32
Codec ID : avc1
Codec ID/Info : Advanced Video Coding
Duration : 1h 33mn
Bit rate mode : Variable
Bit rate : 3 076 Kbps
Width : 1 280 pixels
Height : 544 pixels
Display aspect ratio : 2.35:1
Frame rate mode : Variable
Frame rate : 23.976 fps
Minimum frame rate : 23.810 fps
Maximum frame rate : 1 698.113 fps
Color space : YUV
Chroma subsampling : 4:2:0
Bit depth : 8 bits
Scan type : Progressive
Bits/(Pixel*Frame) : 0.184
Stream size : 2.01 GiB (86%)
Writing library : x264 core 112
Encoding settings : cabac=1 / ref=3 / deblock=1:0:0 / analyse=0x3:0x113 / me=hex / subme=7 / psy=1 / psy_rd=1.00:0.00 / mixed_ref=1 / me_range=16 / chroma_me=1 / trellis=1 / 8x8dct=1 / cqm=0 / deadzone=21,11 / fast_pskip=1 / chroma_qp_offset=-2 / threads=6 / sliced_threads=0 / nr=0 / decimate=1 / interlaced=0 / constrained_intra=0 / bframes=3 / b_pyramid=2 / b_adapt=1 / b_bias=0 / direct=1 / weightb=1 / open_gop=0 / weightp=2 / keyint=240 / keyint_min=23 / scenecut=40 / intra_refresh=0 / rc_lookahead=40 / rc=crf / mbtree=1 / crf=20.0 / qcomp=0.60 / qpmin=3 / qpmax=51 / qpstep=4 / ip_ratio=1.40 / aq=1:1.00
Encoded date : UTC 2011-05-31 19:53:33
Tagged date : UTC 2011-05-31 21:02:33
Color primaries : BT.709-5, BT.1361, IEC 61966-2-4, SMPTE RP177
Transfer characteristics : BT.709-5, BT.1361
Matrix coefficients : BT.709-5, BT.1361, IEC 61966-2-4 709, SMPTE RP177
Audio #1
ID : 2
Format : AAC
Format/Info : Advanced Audio Codec
Format profile : LC
Codec ID : 40
Duration : 1h 33mn
Bit rate mode : Variable
Bit rate : 160 Kbps
Maximum bit rate : 285 Kbps
Channel(s) : 2 channels
Channel positions : Front: L R
Sampling rate : 48.0 KHz
Compression mode : Lossy
Stream size : 107 MiB (4%)
Language : Russian
Encoded date : UTC 2011-05-31 19:53:33
Tagged date : UTC 2011-05-31 21:02:33
Audio #2
ID : 3
Format : AAC
Format/Info : Advanced Audio Codec
Format profile : LC
Codec ID : 40
Duration : 1h 34mn
Bit rate mode : Variable
Bit rate : 160 Kbps
Maximum bit rate : 190 Kbps
Channel(s) : 2 channels
Channel positions : Front: L R
Sampling rate : 48.0 KHz
Compression mode : Lossy
Stream size : 108 MiB (5%)
Language : Russian
Encoded date : UTC 2011-05-31 19:53:33
Tagged date : UTC 2011-05-31 21:02:33
Audio #3
ID : 4
Format : AAC
Format/Info : Advanced Audio Codec
Format profile : LC
Codec ID : 40
Duration : 1h 33mn
Bit rate mode : Variable
Bit rate : 160 Kbps
Maximum bit rate : 343 Kbps
Channel(s) : 2 channels
Channel positions : Front: L R
Sampling rate : 48.0 KHz
Compression mode : Lossy
Stream size : 107 MiB (4%)
Language : English
Encoded date : UTC 2011-05-31 19:53:33
Tagged date : UTC 2011-05-31 21:02:33
Text #1
ID : 5
Format : Timed text
Muxing mode : sbtl
Codec ID : tx3g
Duration : 1h 29mn
Bit rate mode : Variable
Bit rate : 94 bps
Stream size : 61.6 KiB (0%)
Language : Russian
Encoded date : UTC 2011-05-31 19:53:33
Tagged date : UTC 2011-05-31 21:00:56
Text #2
ID : 6
Format : Timed text
Muxing mode : sbtl
Codec ID : tx3g
Duration : 1h 29mn
Bit rate mode : Variable
Bit rate : 104 bps
Stream size : 68.2 KiB (0%)
Language : Russian
Encoded date : UTC 2011-05-31 19:53:33
Tagged date : UTC 2011-05-31 21:00:56
Text #3
ID : 7
Format : Timed text
Muxing mode : sbtl
Codec ID : tx3g
Duration : 1h 33mn
Bit rate mode : Variable
Bit rate : 66 bps
Stream size : 45.5 KiB (0%)
Language : English
Encoded date : UTC 2011-05-31 19:53:33
Tagged date : UTC 2011-05-31 21:02:32
Text #4
ID : 8
Format : Apple text
Codec ID : text
Duration : 1h 33mn
Bit rate mode : Variable
Bit rate : 1 bps
Stream size : 591 Bytes (0%)
Encoded date : UTC 2011-05-31 19:53:33
Tagged date : UTC 2011-05-31 21:02:33




Вернуться к началу
 Профиль Отправить личное сообщение  
 
   Похожие торренты   Автор   Торрент   Размер 
В этой теме нет новых непрочитанных сообщений. Изо всех сил / Over the Top [Боевик, драма, семейный, спорт, 1987] BDRip 720p, Mvo

salma3

0 | 0

11.53 ГБ

В этой теме нет новых непрочитанных сообщений. Изо всех сил / Over the Top [боевик, драма, семейный, спорт, 1987] BDRemux 1080p, Mvo

salma3

3 | 15

23.13 ГБ

В этой теме нет новых непрочитанных сообщений. Бен-Гур / Ben-Hur [боевик, драма, приключения, 2016] BDRip 720p, Du [iPad] [Лицензия]

salma3

0 | 0

2.62 ГБ

В этой теме нет новых непрочитанных сообщений. Инферно / Inferno [боевик, триллер, драма, 2016] BDRip 720p, Dub [iPad] [Лицензия]

salma3

146 | 28

2.91 ГБ

В этой теме нет новых непрочитанных сообщений. Союзники / Allied [боевик, триллер, драма, 2016] BDRip 720p [iPad] [Лицензия]

salma3

20 | 5

1.52 ГБ

В этой теме нет новых непрочитанных сообщений. Восставший / Risen [боевик, драма, детектив, приключения, 2016] BDRip 720p, Dub [iPad]

salma3

29 | 9

1.91 ГБ

В этой теме нет новых непрочитанных сообщений. Крутые меры / Bastille Day [боевик, триллер, драма, 2016] BDRip 720p, Dub [iPad] [Лицензия]

salma3

0 | 0

1.78 ГБ


Начать новую тему Ответить на тему  [ 1 сообщение ] 




Для Мосгорсуда, Роскомнадзора и рекламодателей:: mosgorsud-torrent[собачка]yandex.ru
cron