Торрент файл
скачать торрент магнет ссылка Добавлен: 11 янв 2013, 22:11
Размер: 2.02 ГБ
Сидеров: 2
Личеров: 4
Автор

СообщениеДобавлено: 11 янв 2013, 22:11 

Не в сети
Супермодератор
Аватара пользователя
Дата регистрации:
11 апр 2010, 18:10
Спасибо: 5995 / 7
Сообщения: 56684
id="p-25224744-1">Любовь и прочие обстоятельства / Love and Other Impossible Pursuits
«Love makes everything possible.»
Год выпуска: 2009
Страна: США
Жанр: Драма, мелодрама
Продолжительность: 01:42:31
Перевод : Профессиональный (дублированный)
Русские субтитры: нет
Режиссёр: Дон Рус
В ролях: Натали Портман, Лиза Кудроу, Лорен Эмброуз, Энтони Рэпп, Майкл Кристофер, Скотт Коэн, Чарли Тахэн, Дэйзи Тахэн, Дебра Монк, Элизабет Марвел
Описание: Молодой адвокат, умница и красавица Эмили Гринлиф не знала, что роман с женатым красавцем Джеком Вулфом приведет к таким результатам... Теперь ее собственная семейная жизнь полна проблем. Эмили скрывает роковую тайну, разрываясь между прошлым и заботой о пасынке, мальчике самостоятельном, с непростым характером. Именно общение с ним заставляет ее начать жить заново в этом реальном мире - сложном и удивительном.
Доп. информация:
Качество: BDRip
Формат: *.mp4
Видео кодек: H.264
аудио кодек: ААС
Разрешение: 1024x432
Другие параметры видео: 2500kbit/s; 23.976 fps
Аудио:Rus 160kbit/s; 2ch; 48 KHz
Аудио:Eng 160kbit/s; 2ch; 48 KHz
Вшитая обложка: есть
Доп. теги (режиссёр, актёры и т.д.): прописаны
MediaInfo
General
Complete name : /Users/imac/HandBrake/Ljubov.i.prochie.obstojatelstva.2009.x264.BDRip1024x.m4v
Format : MPEG-4
Format profile : Base Media / Version 2
Codec ID : mp42
File size : 2.02 GiB
Duration : 1h 42mn
Overall bit rate mode : Variable
Overall bit rate : 2 822 Kbps
Movie name : Любовь и прочие обстоятельства Любовь и прочие обстоятельства
Performer : Дон Рус
Genre : Drama
Recorded date : UTC 2009-09-16 15:00:00
Encoded date : UTC 2012-08-22 10:19:56
Tagged date : UTC 2012-08-23 09:46:05
Writing application : HandBrake 0.9.8 2012071800
Cover : Yes
iTunEXTC : mpaa|R|400|
desc : Молодой адвокат, умница и красавица Эмили Гринлиф не знала, что роман с женатым красавцем Джеком Вулфом приведет к таким результатам…
ldes : Молодой адвокат, умница и красавица Эмили Гринлиф не знала, что роман с женатым красавцем Джеком Вулфом приведет к таким результатам… Теперь ее собственная семейная жизнь полна проблем. Эмили скрывает роковую тайну, разрываясь между прошлым и заботой о пасынке, мальчике самостоятельном, с непростым характером. Именно общение с ним заставляет ее начать жить заново в этом реальном мире — сложном и удивительном.
stik : 0
iTunMOVI : <?xml version="1.0" encoding="UTF-8"?> / <!DOCTYPE plist PUBLIC "-/Apple/DTD PLIST 1.0/EN" "http://www.apple.com/DTDs/PropertyList-1.0.dtd"> / <plist version="1.0"> / <dict> / <key>cast</key> / <array> / <dict> / <key>name</key> / <string>Натали Портман</string> / </dict> / <dict> / <key>name</key> / <string>Чарли Тахэн</string> / </dict> / <dict> / <key>name</key> / <string>Скотт Коэн</string> / </dict> / </array> / <key>directors</key> / <array> / <dict> / <key>name</key> / <string>Дон Рус</string> / </dict> / </array> / <key>producers</key> / <array> / <dict> / <key>name</key> / <string>Кэрол Кадди</string> / </dict> / <dict> / <key>name</key> / <string>Марк Э. Платт</string> / </dict> / <dict> / <key>name</key> / <string>Дэн Букатинский</string> / </dict> / </array> / <key>screenwriters</key> / <array> / <dict> / <key>name</key> / <string>Дон Рус</string> / </dict> / <dict> / <key>name</key> / <string>Эйлет Уолдман</string> / </dict> / </array> / </dict> / </plist>
tven : 316099
Video
ID : 1
Format : AVC
Format/Info : Advanced Video Codec
Format profile : [email protected]
Format settings, CABAC : Yes
Format settings, ReFrames : 9 frames
Codec ID : avc1
Codec ID/Info : Advanced Video Coding
Duration : 1h 42mn
Bit rate mode : Variable
Bit rate : 2 500 Kbps
Width : 1 024 pixels
Height : 432 pixels
Display aspect ratio : 2.35:1
Frame rate mode : Variable
Frame rate : 23.976 fps
Minimum frame rate : 23.810 fps
Maximum frame rate : 24.390 fps
Color space : YUV
Chroma subsampling : 4:2:0
Bit depth : 8 bits
Scan type : Progressive
Bits/(Pixel*Frame) : 0.236
Stream size : 1.79 GiB (88%)
Writing library : x264 core 120
Encoding settings : cabac=1 / ref=9 / deblock=1:0:0 / analyse=0x3:0x113 / me=umh / subme=9 / psy=1 / psy_rd=1.00:0.00 / mixed_ref=1 / me_range=32 / chroma_me=1 / trellis=1 / 8x8dct=1 / cqm=0 / deadzone=21,11 / fast_pskip=1 / chroma_qp_offset=-2 / threads=12 / sliced_threads=0 / nr=0 / decimate=1 / interlaced=0 / bluray_compat=0 / constrained_intra=0 / bframes=6 / b_pyramid=2 / b_adapt=1 / b_bias=0 / direct=1 / weightb=1 / open_gop=0 / weightp=2 / keyint=240 / keyint_min=24 / scenecut=40 / intra_refresh=0 / rc_lookahead=40 / rc=2pass / mbtree=1 / bitrate=2500 / ratetol=1.0 / qcomp=0.60 / qpmin=3 / qpmax=69 / qpstep=4 / cplxblur=20.0 / qblur=0.5 / ip_ratio=1.40 / aq=1:1.00
Encoded date : UTC 2012-08-22 10:19:56
Tagged date : UTC 2012-08-22 11:47:47
Color primaries : BT.709-5, BT.1361, IEC 61966-2-4, SMPTE RP177
Transfer characteristics : BT.709-5, BT.1361
Matrix coefficients : BT.709-5, BT.1361, IEC 61966-2-4 709, SMPTE RP177
Audio #1
ID : 2
Format : AAC
Format/Info : Advanced Audio Codec
Format profile : LC
Codec ID : 40
Duration : 1h 42mn
Bit rate mode : Variable
Bit rate : 161 Kbps
Maximum bit rate : 253 Kbps
Channel(s) : 2 channels
Channel positions : Front: L R
Sampling rate : 48.0 KHz
Compression mode : Lossy
Stream size : 118 MiB (6%)
Language : Russian
Encoded date : UTC 2012-08-22 10:19:56
Tagged date : UTC 2012-08-22 11:47:47
Audio #2
ID : 3
Format : AAC
Format/Info : Advanced Audio Codec
Format profile : LC
Codec ID : 40
Duration : 1h 42mn
Bit rate mode : Variable
Bit rate : 157 Kbps
Maximum bit rate : 254 Kbps
Channel(s) : 2 channels
Channel positions : Front: L R
Sampling rate : 48.0 KHz
Compression mode : Lossy
Stream size : 115 MiB (6%)
Language : English
Encoded date : UTC 2012-08-22 10:19:56
Tagged date : UTC 2012-08-22 11:47:47
Text
ID : 4
Format : Apple text
Codec ID : text
Duration : 1h 42mn
Bit rate mode : Constant
Bit rate : 1 bps
Stream size : 468 Bytes (0%)
Encoded date : UTC 2012-08-22 10:19:56
Tagged date : UTC 2012-08-22 11:47:47
x264 log
x264 [info]: frame I:1295 Avg QP:14.05 size: 77417 PSNR Mean Y:48.61 U:51.86 V:53.65 Avg:49.43 Global:49.09
x264 [info]: frame P:58376 Avg QP:16.61 size: 21844 PSNR Mean Y:46.26 U:52.02 V:53.38 Avg:47.23 Global:46.87
x264 [info]: frame B:87710 Avg QP:19.27 size: 6201 PSNR Mean Y:45.31 U:50.39 V:51.76 Avg:46.33 Global:45.97
x264 [info]: consecutive B-frames: 9.8% 32.3% 14.5% 21.6% 20.1% 1.0% 0.8%
x264 [info]: mb I I16..4: 8.1% 74.5% 17.4%
x264 [info]: mb P I16..4: 0.4% 4.1% 0.8% P16..4: 35.3% 31.9% 20.4% 0.0% 0.0% skip: 7.1%
x264 [info]: mb B I16..4: 0.0% 0.4% 0.1% B16..8: 45.9% 12.9% 3.6% direct: 3.5% skip:33.7% L0:44.9% L1:45.6% BI: 9.5%
x264 [info]: 8x8 transform intra:76.3% inter:62.6%
x264 [info]: coded y,uvDC,uvAC intra: 93.1% 87.2% 70.2% inter: 33.7% 32.1% 6.1%
x264 [info]: i16 v,h,dc,p: 47% 13% 9% 31%
x264 [info]: i8 v,h,dc,ddl,ddr,vr,hd,vl,hu: 12% 7% 5% 10% 14% 15% 12% 13% 12%
x264 [info]: i4 v,h,dc,ddl,ddr,vr,hd,vl,hu: 11% 8% 3% 9% 16% 16% 13% 12% 12%
x264 [info]: i8c dc,h,v,p: 49% 17% 20% 14%
x264 [info]: Weighted P-Frames: Y:2.2% UV:0.8%
x264 [info]: ref P L0: 47.5% 11.2% 15.8% 6.7% 5.6% 4.2% 3.9% 2.2% 2.2% 0.7% 0.0%
x264 [info]: ref B L0: 66.6% 14.3% 7.3% 4.0% 3.0% 2.7% 1.7% 0.4%
x264 [info]: ref B L1: 91.5% 8.5%
x264 [info]: SSIM Mean Y:0.9828587 (17.660db)
x264 [info]: PSNR Mean Y:45.718 U:51.052 V:52.422 Avg:46.710 Global:46.328 kb/s:2497.91
iTunes meta tag
Encoding Tool: HandBrake 0.9.8 2012071800
Media Kind —Movie
iPad:vendor_id:2009-316099
contentID-316099
Screenwriters: Дон Рус, Эйлет Уолдман
Producers: Кэрол Кадди, Марк Э. Платт, Дэн Букатинский
Director: Дон Рус
Cast: Натали Портман, Чарли Тахэн, Скотт Коэн
Rating: 5
Long Description: Молодой адвокат, умница и красавица Эмили Гринлиф не знала, что роман с женатым красавцем Джеком Вулфом приведет к таким результатам… Теперь ее собственная семейная жизнь полна проблем. Эмили скрывает роковую тайну, разрываясь между прошлым и заботой о пасынке, мальчике самостоятельном, с непростым характером. Именно общение с ним заставляет ее начать жить заново в этом реальном мире — сложном и удивительном.
Description: Молодой адвокат, умница и красавица Эмили Гринлиф не знала, что роман с женатым красавцем Джеком Вулфом приведет к таким результатам…
Release Date: 2009-09-16T15:00:00Z
Genre: Drama
Artist: Дон Рус
Name: Любовь и прочие обстоятельства Любовь и прочие обстоятельства
Скриншоты



Вернуться к началу
 Профиль Отправить личное сообщение  
 
   Похожие торренты   Автор   Торрент   Размер 
В этой теме нет новых непрочитанных сообщений. Реальная любовь / Love Actually [драма, мелодрама, комедия, 2003] BDRip 720p, Dub

salma3

2 | 1

7.76 ГБ

В этой теме нет новых непрочитанных сообщений. Любовь и Баскетбол / Love & Basketball [драма, мелодрама, спорт, 2000] BDRip 720p, Dvo+Sub

salma3

55 | 16

5.63 ГБ

В этой теме нет новых непрочитанных сообщений. Реальная любовь / Love Actually [мелодрама, комедия, драма, 2003] BDRip HEVC 1080p, Dub

salma3

28 | 25

10.24 ГБ

В этой теме нет новых непрочитанных сообщений. Любовь, сбивающая с ног / Punch-Drunk Love [триллер, драма, мелодрама, комедия, 2002] BDRip 720p, Dvo

salma3

0 | 0

5.71 ГБ

В этой теме нет новых непрочитанных сообщений. Любовь / Love (Гаспар Ноэ / Gaspar Noé) [2015г., Франция, мелодрама, эротика, BDRip-AVC] MVO

Alfredovich

23 | 9

2.64 ГБ

В этой теме нет новых непрочитанных сообщений. Дикая любовь / Mad Love [драма, мелодрама, 1995] WEB-DLRip, Avo

salma3

29 | 5

1.37 ГБ

В этой теме нет новых непрочитанных сообщений. Любовь за стеной / Liebe Mauer [драма, мелодрама, комедия, 2009] BDRip 720p, Mvo

salma3

28 | 14

4.16 ГБ


Начать новую тему Ответить на тему  [ 1 сообщение ] 




Для Мосгорсуда, Роскомнадзора и рекламодателей:: mosgorsud-torrent[собачка]yandex.ru
cron